User Info

ADS

Torrent’s details
Name Masquerade.2012.XviD-XYZ
  You will need to Register or Login to download!
Info Hash 700ab7eb73a2c153bbad29f5e7457e279ecf4696
Description






http://asianwiki.com/Masquerade_-_Korean_Movie
http://www.hancinema.net/korean_movie_Masquerade.php

Movie: Masquerade (English title) / Ghwanghae, Man Became A King (literal title)
Revised romanization: Gwanghae, Wangyidoen Namja
Hangul: 광해, 왕이 된 남자
Genres: Drama, History
Director: Choo Chang-Min
Writer: Hwang Jo-Yoon
Producer: Jung Ji-Hoon, Kim Bo-Yeon
Cinematographer: Lee Tae-Yoon
Release Date: September 13, 2012
Runtime: 131 min.
Genre: Period-17th Century / Drama / Best Film-Movie of the Year
Distributor: CJ Entertainment
Language: Korean
Country: South Korea
Subtitles: None ATM

Cast
Byung-hun Lee ... Ha-seon / King Gwang-hae
Seung-yong Ryoo ... Heo Gyun
Hyo-ju Han ... Queen
In-kwon Kim ... Do
Gwang Jang ... Eunuch
Eun-kyung Shim ... Sa-wol
Myung-gon Kim ... Park Choong-seo

Awards
   2012 (33rd) Blue Dragon Film Awards - November 30, 2012
       Best Art Design
   2012 Korean Association of Film Critics Awards - November 7, 2012
       Best Technical Achievement
   2012 (49th) Daejong Film Awards - October 30, 2012
       Best Film
       Best Director
       Best Actor (Lee Byung-Hun)
       Best Supporting Actor (Ryoo Seung-Ryong)
       Best Screenplay
       Best Cinematography
       Best Visual Effects
       Best Costume Design
       Best Art Design
       Best Music
       Best Sound Effects
       Best Lighting
       Best Editing
       Best Production
       Popularity Award (Lee Byung-Hun)

Synopsis
King Gwanghae (Lee Byung-Hun) has been the King for the past 8 years. He now suspects that someone within the royal court is attempting to poison him. In response, King Gwanghae orders his councilor Heo Gyun (Ryoo Seung-Ryong) to find someone that looks like him to sit in his throne. Heo Gyun then comes across a clown named Ha-Sun (Lee Byung-Hun), who performs lewd shows in front of drunken noblemen. Ha-Sun indeed strongly resembles King Gwanghae and is even able to imitate the way King Gwanghae speaks. Heo Gyun takes Ha-Sun to the royal palace without giving any explanations. At night, Ha-Sun takes the King's seat, while the King slips away to his mistress's home. A short time later, King Gwanghae collapses and is taken to a safe house. Meanwhile, Ha-Sun continues his ruse as the King until the King can recover. Slowly, Ha-Sun's own personality comes out and the people in the King's inner court notice the changes. The King appears more humane to those around him and far less volatile. While Ha-Sun's true voice comes out, enemies within the King's inner circle plan their next move.

General
Complete name                  : Masquerade.2012.XviD-XYZ.avi
Format                         : AVI
Format/Info                    : Audio Video Interleave
File size                      : 700 MiB
Duration                       : 2h 11mn
Overall bit rate               : 745 Kbps

Video
ID                             : 0
Format                         : MPEG-4 Visual
Format profile                 : Advanced Simple@L5
Format settings, BVOP          : 2
Format settings, QPel          : No
Format settings, GMC           : No warppoints
Format settings, Matrix        : Default (H.263)
Muxing mode                    : Packed bitstream
Codec ID                       : XVID
Codec ID/Hint                  : XviD
Duration                       : 2h 11mn
Bit rate                       : 636 Kbps
Width                          : 640 pixels
Height                         : 272 pixels
Display aspect ratio           : 2.35:1
Frame rate                     : 23.976 fps
Color space                    : YUV
Chroma subsampling             : 4:2:0
Bit depth                      : 8 bits
Scan type                      : Progressive
Compression mode               : Lossy
Bits/(Pixel*Frame)             : 0.152
Stream size                    : 598 MiB (85%)
Writing library                : XviD 1.2.1

Audio
ID                             : 1
Format                         : MPEG Audio
Format version                 : Version 1
Format profile                 : Layer 3
Mode                           : Joint stereo
Mode extension                 : Intensity Stereo + MS Stereo
Codec ID                       : 55
Codec ID/Hint                  : MP3
Duration                       : 2h 11mn
Bit rate mode                  : Constant
Bit rate                       : 96.0 Kbps
Channel(s)                     : 2 channels
Sampling rate                  : 48.0 KHz
Compression mode               : Lossy
Stream size                    : 90.3 MiB (13%)
Alignment                      : Aligned on interleaves
Interleave, duration           : 24 ms (0.58 video frame)
Interleave, preload duration   : 480 ms



IMDB
IMDB Extra
More.Info
Category Korean Movie
Rating
Size 700.16 MB
Show/Hide Files
1 file
AddDate 31/01/2013
Uploader ANONYMOUS
Speed 0 KB/sec
Down 1672 times
peers seeds: 22, leechers: 1 = 23 peers
Who thanked
Report
Reseed


04/04/2014 05.21 pm

Maybe you should edit the "NONE ATM subs" I almost did not download it laugh.gif
Thank you very much! grin.gif
17/03/2013 06.48 am

Good Movie.. Felt like i watched "1993,Dave" english movie in korean language.. smile1.gif
19/02/2013 03.54 pm

subs are perfect, so is the movie!
18/02/2013 04.48 am

anyone tested the subs? any good?
16/02/2013 06.18 pm

Just found the sub link: http://subscene.com/subtitles/i-am-a-king/english/690146
Give it a try!
06/02/2013 08.55 pm

will there be any subtitles?




ADS