User Info

ADS

Torrent’s details
Name Peacock.2005.DVDRip.XviD-TBF
  You will need to Register or Login to download!
Info Hash 6fd9d8f05068f1e0366d7573dc86e722f13e13d0
Description Kong que



A.K.A: Peacock
─░MDB: http://www.imdb.com/title/tt0445506/
Cast:  Jing An, Li Feng, Changwei Gu, Liu Guonan, Meiying Huang, Shi Junhui, Wenying Li, Lei Liu, Yulai Lu
Director: Changwei Gu
Writer: Qiang Li
Genre: Drama
Runtime: 02:21:43 [CD1 01:11:23] [CD2 01:10:20]
Language: Mandarin
Subtitles: English / Turkish


Plot: The story is set in the 1970s in a small town in China. A middle aged couple has three children. The eldest son is obese and mentally challenged, therefore he is teased and outcasted by others. The second child is an outgoing and energetic daughter, who is not afraid of doing anything to pursue her dreams or to survive. The youngest child is a shy and quiet boy who is ashamed by his older brother and tries to break away from the misery in his family. Breaking into three sections focusing on each of these siblings, the film allows us to look into the lives of ordinary Chinese people the 70s.

Media Info
Spoiler:show
General
     Complete name : Kong que - Peacock - [2005]Peacock.2005.DVDRip.XviD-TBF-CD1.avi
     Format : AVI
     Format/Info : Audio Video Interleave
     File size : 700 MiB
     Duration : 1h 11mn
     Overall bit rate mode : Variable
     Overall bit rate : 1 371 Kbps
     Writing application : Nandub v1.0rc2
     Writing library : Nandub build 1852/release
  Video #0
     ID : 0
     Format : MPEG-4 Visual
     Format profile : Simple@L3
     Format settings, BVOP : No
     Format settings, QPel : No
     Format settings, GMC : No warppoints
     Format settings, Matrix : Default (MPEG)
     Codec ID : XVID
     Codec ID/Hint : XviD
     Duration : 1h 11mn
     Bit rate : 1 169 Kbps
     Width : 640 pixels
     Height : 336 pixels
     Display aspect ratio : 1.905
     Frame rate : 23.976 fps
     Color space : YUV
     Chroma subsampling : 4:2:0
     Bit depth : 8 bits
     Scan type : Progressive
     Compression mode : Lossy
     Bits/(Pixel*Frame) : 0.227
     Stream size : 597 MiB (85%)
     Writing library : XviD 1.0.3 (UTC 2004-12-20)
  Audio #1
     ID : 1
     Format : MPEG Audio
     Format version : Version 1
     Format profile : Layer 3
     Mode : Dual mono
     Codec ID : 55
     Codec ID/Hint : MP3
     Duration : 1h 11mn
     Bit rate mode : Variable
     Bit rate : 192 Kbps
     Channel(s) : 2 channels
     Sampling rate : 48.0 KHz
     Compression mode : Lossy
     Stream size : 96.6 MiB (14%)
     Alignment : Aligned on interleaves
     Interleave, duration : 24 ms (0.58 video frame)
     Interleave, preload duration : 128 ms
     Writing library : LAME3.96r
     Encoding settings : -m d -V 4 -q 3 -lowpass 19.5 --abr 192



  General
     Complete name : Kong que - Peacock - [2005]Peacock.2005.DVDRip.XviD-TBF-CD2.avi
     Format : AVI
     Format/Info : Audio Video Interleave
     File size : 701 MiB
     Duration : 1h 10mn
     Overall bit rate mode : Variable
     Overall bit rate : 1 394 Kbps
     Writing application : Nandub v1.0rc2
     Writing library : Nandub build 1852/release
  Video #0
     ID : 0
     Format : MPEG-4 Visual
     Format profile : Simple@L3
     Format settings, BVOP : No
     Format settings, QPel : No
     Format settings, GMC : No warppoints
     Format settings, Matrix : Default (MPEG)
     Codec ID : XVID
     Codec ID/Hint : XviD
     Duration : 1h 10mn
     Bit rate : 1 194 Kbps
     Width : 640 pixels
     Height : 336 pixels
     Display aspect ratio : 1.905
     Frame rate : 23.976 fps
     Color space : YUV
     Chroma subsampling : 4:2:0
     Bit depth : 8 bits
     Scan type : Progressive
     Compression mode : Lossy
     Bits/(Pixel*Frame) : 0.232
     Stream size : 601 MiB (86%)
     Writing library : XviD 1.0.3 (UTC 2004-12-20)
  Audio #1
     ID : 1
     Format : MPEG Audio
     Format version : Version 1
     Format profile : Layer 3
     Mode : Dual mono
     Codec ID : 55
     Codec ID/Hint : MP3
     Duration : 1h 10mn
     Bit rate mode : Variable
     Bit rate : 192 Kbps
     Channel(s) : 2 channels
     Sampling rate : 48.0 KHz
     Compression mode : Lossy
     Stream size : 94.3 MiB (13%)
     Alignment : Aligned on interleaves
     Interleave, duration : 24 ms (0.58 video frame)
     Interleave, preload duration : 477 ms


ScreenShot


IMDB
IMDB Extra
More.Info
Category Chinese Movie
Rating N/A
Size 1.37 GB
Show/Hide Files
6 files
AddDate 12/12/2013
Uploader ANONYMOUS
Speed 0 KB/sec
Down 176 times
peers seeds: 12, leechers: 0 = 12 peers
Who thanked
Report
Reseed


13/12/2013 05.43 am

Looks pretty good, thanks for sharing
13/12/2013 01.29 am

Mod: Changed image links to http://www.asiatorrents.me/imgz/. Next OP should use AsiaTorrents' Image Host.
12/12/2013 11.45 pm

Thanks!smile1.gif




ADS