User Info

ADS

Torrent’s details
Name SNSD Girls' Generation Taetiseo - Goodbye, Hello @ Music Core 130413
  You will need to Register or Login to download!
Info Hash 6f0c37600001e2bcf0c6d1178c4a16e09fdc1bf3
Description SNSD Girls' Generation Taetiseo




Video
ID                                       : 17 (0x11)
Menu ID                                  : 1 (0x1)
Format                                   : MPEG Video
Format version                           : Version 2
Format profile                           : Main@High
Format settings, BVOP                    : Yes
Format settings, Matrix                  : Custom
Format settings, GOP                     : M=3, N=15
Codec ID                                 : 2
Duration                                 : 3mn 26s
Bit rate                                 : 17.0 Mbps
Maximum bit rate                         : 17.4 Mbps
Width                                    : 1 920 pixels
Height                                   : 1 080 pixels
Display aspect ratio                     : 16:9
Frame rate                               : 29.970 fps
Standard                                 : Component
Color space                              : YUV
Chroma subsampling                       : 4:2:0
Bit depth                                : 8 bits
Scan type                                : Interlaced
Scan order                               : Top Field First
Compression mode                         : Lossy
Bits/(Pixel*Frame)                       : 0.273
Stream size                              : 417 MiB (93%)
Name                                     : ko:Video

Audio
ID                                       : 20 (0x14)
Menu ID                                  : 1 (0x1)
Format                                   : AC-3
Format/Info                              : Audio Coding 3
Mode extension                           : CM (complete main)
Codec ID                                 : 129
Duration                                 : 3mn 26s
Bit rate mode                            : Constant
Bit rate                                 : 384 Kbps
Channel(s)                               : 2 channels
Channel positions                        : Front: L R
Sampling rate                            : 48.0 KHz
Bit depth                                : 16 bits
Compression mode                         : Lossy
Delay relative to video                  : -142ms
Stream size                              : 9.45 MiB (2%)
Language                                 : Korean
Name                                     : ko:Audio
IMDB No IMDB ID been added..
Category Korean Music
Rating
Size 374.76 MB
Show/Hide Files
1 file
AddDate 13/04/2013
Uploader ANONYMOUS
Speed 0 KB/sec
Down 245 times
peers seeds: 4, leechers: 0 = 4 peers
Who thanked
Report
Reseed


18/11/2013 06.13 am

Thank you smile1.gif!
I miss TaeTiSeo. Comeback please my girlscry.gif?
26/05/2013 11.05 am

Love TTS...saranghae
14/04/2013 08.46 pm

Thanks very much smile1.gif
13/04/2013 02.19 pm

Thanks a lot !
13/04/2013 01.32 pm

THANK YOU KING!!!
13/04/2013 12.41 pm

nooooo!! maybe they work on new album tongue.gif
13/04/2013 10.24 am

sad.gif TTS on Music Core is over
13/04/2013 10.15 am

TTS!!bounce.gifbounce.gifbounce.gifbounce.gifbounce.gif
13/04/2013 10.11 am

TTS bounce.gif
13/04/2013 10.10 am

TTS! bounce.gifbounce.gifbounce.gifbounce.gif




ADS