User Info

ADS

Torrent’s details
Name Daughter of Darkness 2 1994
  You will need to Register or Login to download!
Info Hash 6e4c2081f1146786f375c3a1a020683df95eac78
Description


Mie men can an II jie zhong (1994)
(a.k.a. Daughter of Darkness II)

Kai Ming Lai
A Hong Kong Cat. III Movie
Rated III for crude humor, sexual content and gory violence



Genre : humor / horror / exploitation
Release Date : 1994
Runtime : 96 mins
Country : Hong Kong
Language : Chinese (Cantonese)
Subtitles : English (hardcoded)

CAST AND CREW
Director : Kai Ming Lai
Script : Gwai Book

Cast
Yim Lai Cheng ... Sau
Ka-Kui Ho
Dick Lau ... Ku

The film begins with the discovery of a slaughter, and a dim-witted cop (Liu Kai Chi) trying
to solve the case. His, shall we say, "unconventional" methods include having all the men in town masturbate
into pots and his buxom deputy getting a vaginal exam so he can rifle through a doctor's files.







Daughter.Of.Darkness.II.DVDRip.DiVX-PAiN.avi
Format                           : AVI
Format/Info                      : Audio Video Interleave
File size                        : 698 MiB
Duration                         : 1h 36mn
Overal bit rate                  : 1008 Kbps

Video
Format                           : MPEG-4 Visual
Format settings, BVOP            : Yes
Format settings, QPel            : No
Format settings, GMC             : No warpoints
Format settings, Matrix          : Default
Muxing mode                      : Packet Bitstream
Codec ID                         : DX50
Codec ID/Hint                    : DivX 5
Duration                         : 1h 36mn
Bit rate                         : 836 Kbps
Width                            : 608 pixels
Height                           : 320 pixels
Display aspect ratio             : 1.900
Frame rate                       : 29.970 fps
Resolution                       : 8 bits
Colorimetry                      : 4:2:0
Scan type                        : Progressive
Bits/(Pixel*Frame)               : 0.143
Stream size                      : 579 MiB
Writing library                  : DivX 5.0.5 Beta(Tahanea) (UTC 2003-01)

Audio
Format                           : MPEG Audio
Format version                   : Version 1
Format profile                   : Layer 3
Codec ID                         : 55
Codec ID/Hint                    : MP3
Duration                         : 1h 36mn
Bit rate mode                    : Constant
Bit rate                         : 160 Kbps
Channel(s)                       : 2 channels
Sampling rate                    : 44.1 KHz
Resolution                       : 16 bits
Stream size                      : 111 MiB

IMDB
IMDB Extra
More.Info
Category HK - Erotica/+18
Rating
Size 698.50 MB
Show/Hide Files
1 file
AddDate 11/07/2008
Uploader ANONYMOUS
Speed 0 KB/sec
Down 681 times
peers seeds: 13, leechers: 0 = 13 peers
Who thanked
Report
Reseed


15/08/2012 04.24 pm

help...upload again this movie coz i can't download ....huhuhu plz someone help me...cry.gif
25/06/2011 12.32 am

huhuhu...i can't download....daughter of darkness 2....huhuhu...help me...
06/01/2010 05.49 pm

thanks for the movie




ADS