User Info

ADS

Torrent’s details
Name Oolong Blast (CAT III)
  You will need to Register or Login to download!
Info Hash 6d7e87f5f914aa2cb406f1b49070a6ec43724ce1
Description





Directed: Liu Shao Feng
Genre: Adult | Comedy
Runtime 1:23:04
Country: Taiwan
Language: Mandarin / Cantonese
Subtitles:None


---File/video technical info---

<Video>
Format                           : AVI
File size                        : 697 MiB
Overall bit rate                 : 1 173 Kbps
Codec ID                         : XVID
Bit rate                         : 1 038 Kbps
Width                            : 608 pixels
Height                           : 480 pixels
Display aspect ratio             : 5:4
Frame rate                       : 25.000 fps
Resolution                       : 8 bits
Colorimetry                      : 4:2:0
Bits/(Pixel*Frame)               : 0.142
Stream size                      : 617 MiB (88%)

<Audio>
Bit rate                         : 128 Kbps
Sampling rate                    : 44.1 KHz
Stream size                      : 76.1 MiB (11%)
Interleave, duration             : 1000 ms (25.00 video frames)

Cast: Yang Zhongen. Chen Zhen Zhen

Plot: The two timid thief kidnapping gang leader's daughter,leader's daughter in turn teach them to plan the next step....






IMDB No IMDB ID been added..
Category Taiwan - Erotica/+18
Rating N/A
Size 696.79 MB
Show/Hide Files
1 file
AddDate 15/04/2010
Uploader ANONYMOUS
Speed 7.92 KB/sec
Down 625 times
peers seeds: 2, leechers: 0 = 2 peers
Who thanked
Report
Reseed


06/12/2010 09.38 am

Thank you
16/04/2010 12.43 am

Thank you Dr. Detroit!8)




ADS