User Info

ADS

Torrent’s details
Name I Am Legend (2010) Complete (hardsubbed)
  You will need to Register or Login to download!
Info Hash 69cefb574a7ce4ba57351df01e73b4d9d3c1425d
Description

http://wiki.d-addicts.com/I_Am_Legend
http://www.hancinema.net/korean_drama_I_Am_Legend.php
http://asianmediawiki.com/I_Am_Legend

Title: 나는 전설이다 / Naneun Junseolida
Genre: Romance, music, law
Episodes: 16
Broadcast network: SBS
Broadcast period: 2010-Aug-02 to 2010-Sep-21
Air time: Monday & Tuesday 20:55
Language: Korean
Country: South Korea
Subtitles: English (hardsubbed)

Production Credits
Producer: Choi Moon Suk
Director: Kim Hyung Sik
Screenwriter: Im Hyun Kyung, Ma Jin Won (마진원)

Main Cast
Kim Jung Eun as Jun Seol Hee
Lee Joon Hyuk as Jang Tae Hyun
Kim Seung Soo as Cha Ji Wook
Jang Young Nam as Oh Seung Hye
Jang Shin Young as Kang Soo In
Hong Ji Min as Lee Hwa Ja
Hyun Jyu Ni as Yang Ah Reum
Go Eun Mi as Kang Ran Hee
Cha Hwa Yun as Ms. Hong (Ji Wook's mother)
Park Young Ji as District Attorney Cha
Yoon Joo Hee as Jun Jae Hee

Recognitions
2010 SBS Drama Awards: Top Excellence Award, Special Planning Drama - Actress (Kim Jung Eun)
2010 SBS Drama Awards: Top Excellence Award, Special Planning Drama - Supporting Actress (Hong Ji Min)

Synopsis
Back in her high school days Jeon Seol-Hee (Kim Jung-Eun) was the singer for a legendary rock group, but to support her younger sister's education she started to work as a clerk at a top Korean law firm. While working there she met a bright lawyer named Cha Ji-Wook (Kim Seung-Su) and eventually married. Seol-Hee then became the daughter-in-law for an ultra wealthy family, but Seol-Hee soon learns that all that glitters isn't gold.
At social functions Seol-Hee's husband instructs her to not speak and just nod in agreement with the others. Her mother-in-law (Cha Hwa-Yeon) is incredibly insensitive to Seol-Hee as a person. What pushes Seol-Hee to the edge is when Seol-Hee's younger sister, who is now a doctor, is hospitalized with cancer and needs a bone marrow transplant from Seol-Hee. Seol-Hee's mother-in-law opposes Seol-Hee doing the medical procedure because it will interfere with Seol-Hee's visits to a fertility clinic. Seol-Hee's husband offers no support whatsoever. A few days later at a family dinner, Seol-Hee announces that she will file for divorce.
Seol-Hee, now single again, embarks on a new career as a singer for the "Madonna Band," an all female group consisting of "ahjummas" (older women). Seol-Hee also starts a relationship with Jang Tae-Hyeon (Lee Jun-Hyeok), a guitarist and composer.

General
Complete name                    : I am Legend 01.mp4
Format                           : MPEG-4
Format profile                   : Base Media
Codec ID                         : isom
File size                        : 185 MiB
Duration                         : 57mn 49s
Overall bit rate                 : 447 Kbps

Video
ID                               : 1
Format                           : AVC
Format/Info                      : Advanced Video Codec
Format profile                   : High@L3.1
Format settings, CABAC           : Yes
Format settings, ReFrames        : 8 frames
Codec ID                         : avc1
Codec ID/Info                    : Advanced Video Coding
Duration                         : 57mn 49s
Bit rate mode                    : Variable
Bit rate                         : 400 Kbps
Maximum bit rate                 : 2 201 Kbps
Width                            : 800 pixels
Height                           : 450 pixels
Display aspect ratio             : 16:9
Frame rate mode                  : Constant
Frame rate                       : 29.970 fps
Color space                      : YUV
Chroma subsampling               : 4:2:0
Bit depth                        : 8 bits
Scan type                        : Progressive
Bits/(Pixel*Frame)               : 0.037
Stream size                      : 165 MiB (90%)
Writing library                  : x264 core 115 r1947 b5a8ad7

Audio
ID                               : 2
Format                           : AAC
Format/Info                      : Advanced Audio Codec
Format profile                   : HE-AAC / LC
Codec ID                         : 40
Duration                         : 57mn 49s
Bit rate mode                    : Variable
Bit rate                         : 40.0 Kbps
Maximum bit rate                 : 47.3 Kbps
Channel(s)                       : 2 channels
Channel positions                : Front: L R
Sampling rate                    : 48.0 KHz / 24.0 KHz
Compression mode                 : Lossy
Stream size                      : 16.5 MiB (9%)




IMDB No IMDB ID been added..
Category Korean TV
Rating
Size 2.85 GB
Show/Hide Files
17 files
AddDate 19/05/2011
Uploader ANONYMOUS
Speed 0 KB/sec
Down 624 times
peers seeds: 0, leechers: 0 = 0 peers
Who thanked
Report
Reseed


10/02/2014 05.21 pm

please seed !!!!!!!!!!!!!!!sleep.gifsleep.gifsleep.gifsleep.gifsleep.gif
01/12/2013 05.20 am

thank you i like it
22/11/2012 12.04 pm

Would appreciate it very much if someone could please seed.
Thank you.
27/06/2012 07.17 pm

grin.gifgrin.gifgrin.gifgrin.gifgrin.gifgrin.gifgrin.gifgrin.gifgrin.gifgrin.gifgrin.gifgrin.gif
I'm so happy!! I've been looking for the medium quality for this drama EVERYWHERE!!
Thank you, you've made my day!!!
grin.gifgrin.gifgrin.gifgrin.gifgrin.gifgrin.gifgrin.gifgrin.gifgrin.gifgrin.gifgrin.gifgrin.gif
22/06/2011 12.46 am

Thanks for this series cant wait to watch it smile1.gif
25/05/2011 07.25 pm

I'm having problems with the second episode. sad.gif
21/05/2011 12.14 pm

wheres will smith and the zombies??!
19/05/2011 01.53 pm

pretty ahjummas ftw tongue.gif

cant edit posts here >_<
19/05/2011 01.51 pm

thanx. I was waiting for this one a while now.wink.gif




ADS