User Info

ADS

Torrent’s details
Name Shiritsu Bakaleya Koukou movie [2012]
  You will need to Register or Login to download!
Info Hash 69a1487fffd08202bca592d45a224aff22881e5f
Description Bakaleya High School


Movie: Bakaleya High School
Romaji: Shiritsu Bakaleya Koko
Japanese: 私立バカレア
Director: Takashi Kubota
Writer: Yuko Matsuda
Producer: Hiroyasu Asami, Mitsuru Ohshima, Misato Iijima, Yasushi Kubota, Hiroyoshi Kozaki, Koji Hyakutake, Hiroyuki Ueno, Tetsuya Sakashita, Hibiki Ito
Cinematographer: Yasushi Hanamura
Release Date: October 13, 2012
Runtime: 92 min.
Genre: Teen / School
Distributor: Showgate
Language: Japanese
Country: Japan
Subtitle: NONE
hana8796 is subbing the movie
http://hana8796.livejournal.com/

Plot
In "Shiritsu Bakaleya Koko" two high schools merge together. On one side is the "baka" all male high school, filled with troublemakers. The other side is the “cattleya”all girl high school, filled with well educated girls from rich families. What will happen when the schools merge?

http://asianwiki.com/Bakaleya_High_School

Related show:
Shiritsu Bakaleya Koko (NTV / 2012)
http://www.asiatorrents.me/index.php?page=torrent-details&id=dcac0f3ac9f836335f78c86bdc3150f692d8c73c

Cast
Spoiler:show

   Shintaro Morimoto - Tatsuya Sakuragi
   Hokuto Matsumura - Tetsuya Asada
   Jesse Lewis - Yuki Satonaka
   Taiga Kyomoto - Maya Terakawa
   Haruka Shimazaki - Fumie Shingyoji
   Mina Oba - Saya Kokyu
   Kaoru Mitsumune - Sayuri Tokimune
   Juri Tanaka - Soichi Noguchi
   Yugo Kochi - Makoto Jimbo
   Mariya Nagao - Mana Honjo
   Marina Kobayashi - Reika Zaizen
   Haruka Shimada - An Miyata
   Mariko Nakamura - Kaori Shinohara
   Hikaru Iwamoto - Kaito Majima
   Daisuke Sakuma - Fuuta Mikuni
   Ryohei Abe - Hiroi Azuma
   Shota Watanabe - Daiki Tango
   Tatsuya Fukasawa - Hayao Igarashi
   Ryota Miyadate - Noriyuki Kanzaki
   Rena Kato - Yuka
   Miyu Takeuchi - Nozomi Yuusa
   Rina Kawaei - Haruka Bairinji
   Juri Takahashi - Miyu Nikaido
   Miori Ichikawa - Nanabi Tachibana
   Yuta Tamamori - Kenji Majima
   Toshiya Miyata - Junichi Koba
   Haruna Kojima - Marina Mizuhara
   Hiroki Uchi - Ren Sakuragi
   Yuya Takaki - Shohei Tatsunami
   Moe Sasaki - Moe Okamoto
   Anna Ishii
   Koutaro Kakimoto


Screenshots:
Spoiler:show
[/spoiler]

Media Info:
[spoiler=MediaInfo]General
Complete name                            : L:#New MovieShiritsu Bakaleya Koukou movie [2012]SBK Movie.mp4
Format                                   : MPEG-4
Format profile                           : Base Media / Version 2
Codec ID                                 : mp42
File size                                : 2.03 GiB
Duration                                 : 1h 31mn
Overall bit rate mode                    : Variable
Overall bit rate                         : 3 159 Kbps
Writing application                      : TMPGEnc Video Mastering Works 5 Version. 5.0.5.32

Video
ID                                       : 2
Format                                   : AVC
Format/Info                              : Advanced Video Codec
Format profile                           : High@L5.1
Format settings, CABAC                   : Yes
Format settings, ReFrames                : 3 frames
Codec ID                                 : avc1
Codec ID/Info                            : Advanced Video Coding
Duration                                 : 1h 31mn
Bit rate mode                            : Constant
Bit rate                                 : 3 028 Kbps
Nominal bit rate                         : 3 200 Kbps / 3 200 Kbps
Width                                    : 1 024 pixels
Height                                   : 576 pixels
Display aspect ratio                     : 16:9
Frame rate mode                          : Constant
Frame rate                               : 23.976 fps
Standard                                 : NTSC
Color space                              : YUV
Chroma subsampling                       : 4:2:0
Bit depth                                : 8 bits
Scan type                                : Progressive
Bits/(Pixel*Frame)                       : 0.214
Stream size                              : 1.94 GiB (96%)
Writing library                          : x264 core 112
Encoding settings                        : cabac=1 / ref=3 / deblock=1:0:0 / analyse=0x3:0x113 / me=hex / subme=7 / psy=1 / psy_rd=1.00:0.00 / mixed_ref=1 / me_range=16 / chroma_me=1 / trellis=1 / 8x8dct=1 / cqm=2 / deadzone=21,11 / fast_pskip=1 / chroma_qp_offset=-2 / threads=6 / sliced_threads=0 / slices=1 / nr=0 / decimate=1 / interlaced=0 / constrained_intra=0 / bframes=3 / b_pyramid=0 / b_adapt=1 / b_bias=0 / direct=1 / weightb=1 / open_gop=0 / weightp=2 / keyint=250 / keyint_min=23 / scenecut=40 / intra_refresh=0 / rc_lookahead=40 / rc=cbr / mbtree=1 / bitrate=3200 / ratetol=1.0 / qcomp=0.60 / qpmin=3 / qpmax=51 / qpstep=4 / vbv_maxrate=3200 / vbv_bufsize=3194 / nal_hrd=cbr / frame-packing=0 / ip_ratio=1.40 / aq=1:1.00
Color primaries                          : BT.709-5, BT.1361, IEC 61966-2-4, SMPTE RP177
Transfer characteristics                 : BT.709-5, BT.1361
Matrix coefficients                      : BT.709-5, BT.1361, IEC 61966-2-4 709, SMPTE RP177

Audio
ID                                       : 1
Format                                   : AAC
Format/Info                              : Advanced Audio Codec
Format profile                           : LC
Codec ID                                 : 40
Duration                                 : 1h 31mn
Bit rate mode                            : Variable
Bit rate                                 : 128 Kbps
Maximum bit rate                         : 576 Kbps
Channel(s)                               : 2 channels
Channel positions                        : Front: L R
Sampling rate                            : 48.0 KHz
Compression mode                         : Lossy
Delay relative to video                  : -200ms
Stream size                              : 84.2 MiB (4%)


Note:
Credits to http://kyomototaiga.livejournal.com/
If somebody decides to make English subtitle for this movie and needs the Japanese script, please contact them or just PM me grin.gif
IMDB No IMDB ID been added..
Category Japanese Movie
Rating
Size 2.03 GB
Show/Hide Files
1 file
AddDate 13/04/2013
Uploader ANONYMOUS
Speed 0 KB/sec
Down 880 times
peers seeds: 15, leechers: 0 = 15 peers
Who thanked
Report
Reseed


28/12/2013 02.50 pm

Thank's bro...cool1.gif
27/10/2013 04.46 pm

I've been trying to download this torrent for almost 2 months, but have not found any peers and the file is still at 0.00%. If there's anyone who would seed this torrent, please do. I'd greatly appreciate it. If anyone does decide to seed it, let me know please. Thanks.
12/05/2013 08.13 pm

Thank You! thumbsup.gif
12/05/2013 06.17 am

Sorry I didn't include this in the comments for the sub but again Credits to: deslycious.livejournal.com and Choyroersmile1.gif
12/05/2013 06.14 am

How do we get Invitations? How do they work? Lolsmile1.gif
12/05/2013 05.48 am

I tried my best to translate. I know some things may be off, but I gave it my all. Enjoysmile1.gif
12/05/2013 05.47 am

Credits to: deslycious.livejournal.com and Choyroer smile1.gif
02/05/2013 08.32 am

Yes iwe heard so too. If so then it will arrive in oct /nov 2013 smile1.gif
02/05/2013 03.49 am

Hey I heard that there is going to be a second season. It it true?
28/04/2013 12.55 pm

Any news on the english subs im dying to watch this one ! tongue.gif
26/04/2013 01.59 am

All: sorry guys if there's not update yet. I got the movie from this journal http://kyomototaiga.livejournal.com and they haven't given any update about the subtitle progress. I wish to make the English subs from Indonesian subs (made by my friend) but due to all business in my real life activity I can't handle it yet. cry.gif
25/04/2013 08.17 pm

uhm..
you said:

hana8796 is subbing the movie
http://hana8796.livejournal.com/

but the lj is only a white site.. without any entrys Q.Q
so how can i get the subs when they are ready?
24/04/2013 08.15 am

Sorry bout that! The question was for Hana8796 smile1.gif
24/04/2013 08.11 am

Is it a long way to go with the english subs Choyroer ? grin.gif
21/04/2013 02.20 pm

dayumm... indonesian subtitles,.. great thanks thumbsup.gif
18/04/2013 06.41 pm

Oki thx a lot K.O.B s ! smile1.giftongue.gif
17/04/2013 10.16 pm

Anger Management by Song Riders
Check it out on youtube. The video is titled (Song Riders Anger Management MV -full ver)
thumbsup.gif
17/04/2013 09.53 pm

Oki thats great ! which song was it ? Mtongue.gif
17/04/2013 08.36 pm

Thanks, but i meant the song right at the beginning when the two schools are fighting.
Anyways i found it today.grin.gif
17/04/2013 08.28 am

Its the same song as in the series its (Shake it) up by Japanese boyband Kis my ft2 grin.gif
Im eager for subs too ! Also Tv the series season 2 comes in oct/nov 2013 smile1.gif
16/04/2013 10.19 pm

Does anyone know what the song at the beginning of the movie is called? Can't wait for the subtitles to come out.
14/04/2013 12.13 pm

i very like Shiritsu bakaleya koko series , so this won't be a problem  grin.gif
14/04/2013 08.02 am

Any idea when would the subs be out? The series waa nice. Cant wait for the subs.
14/04/2013 12.55 am

Just keep calm and wait for the subs, hana8796 in livejournal is currently subbing this movie grin.gif
13/04/2013 10.52 pm

Damn, I have download 53% and now this havent seeds. Plz, re seed!
13/04/2013 11.44 am

Yes Finally the movie is out ! thx a lot ! when can we have subs for it ?
The series is great too and a new season will air in the autumn of 2013 smile1.gif
13/04/2013 07.09 am

sounds like the anime 'green green.' i will watch




ADS