User Info

ADS

Torrent’s details
Name Takumi-kun Series Ano, Hareta Aozora (2011) (eng subbed)
  You will need to Register or Login to download!
Info Hash 68beebd2c3854b692c8667d00c958a64640df1e8
Description

http://takumi-kun.com/
http://www.mydramalist.com/japanese-movie/3392
http://www.imdb.com/title/tt1965134/

Title: Takumi-kun Series: Ano, Hareta Aozora
Native title: あの、晴れた青空
AKA: Takumi-Kun Series 5; Takumi-Kun 5; That, Sunny Blue Sky
Genre: Drama, Romance, Boys Love
Director: Yokoi Kenji
Writers: Shinobu Goto (manga), Hiroko Kanasugi
Runtime: 89 min
Release Date: August 20, 2011
Country: Japan
Language: Japanese
Subtitles: Chinese (hardsubbed) | English (.srt external)

Cast
Kyosuke Hamao ... Takumi Hayama
Daisuke Watanabe ... Giichi Saki
Yukihiro Takiguchi ... Shozou Akaike
Ryoma Baba ... Arata Misu
Taiki Naito ... Kanemitsu Shingyoji
Shôta Takasaki ... Reiji Minoiwa
Tamotsu Ishibashi


Synopsis
It's June of their third year of high school, and Takumi has an important anniversary to attend back in his hometown. He wants to invite Gii along for the trip, but time and scheduling and possibly broken promises stand in the way. 4th and final film to feature Daisuke Watanabe and Kyosuke Hamao as Saki Giichi and Takumi Hayama respectfully.

General
Complete name                  : Takumi-kun 5 (Ano Hareta Aozora).avi
Format                         : AVI
Format/Info                    : Audio Video Interleave
File size                      : 568 MiB
Duration                       : 1h 29mn
Overall bit rate               : 891 Kbps
Writing application            : MEncoder SVN-r30881(20100311-gcc4.3.3)
Writing library                : MPlayer

Video
ID                             : 0
Format                         : MPEG-4 Visual
Format profile                 : Simple@L1
Format settings, BVOP          : No
Format settings, QPel          : No
Format settings, GMC           : No warppoints
Format settings, Matrix        : Default (H.263)
Codec ID                       : DX50
Codec ID/Hint                  : DivX 5
Duration                       : 1h 29mn
Bit rate                       : 751 Kbps
Width                          : 720 pixels
Height                         : 480 pixels
Display aspect ratio           : 3:2
Frame rate                     : 25.000 fps
Standard                       : NTSC
Color space                    : YUV
Chroma subsampling             : 4:2:0
Bit depth                      : 8 bits
Scan type                      : Progressive
Compression mode               : Lossy
Bits/(Pixel*Frame)             : 0.087
Stream size                    : 479 MiB (84%)
Writing library                : Lavc52.58.0

Audio
ID                             : 1
Format                         : MPEG Audio
Format version                 : Version 1
Format profile                 : Layer 3
Mode                           : Joint stereo
Mode extension                 : MS Stereo
Codec ID                       : 55
Codec ID/Hint                  : MP3
Duration                       : 1h 29mn
Bit rate mode                  : Constant
Bit rate                       : 128 Kbps
Channel(s)                     : 2 channels
Sampling rate                  : 44.1 KHz
Compression mode               : Lossy
Stream size                    : 81.6 MiB (14%)
Alignment                      : Aligned on interleaves
Interleave, duration           : 26 ms (0.65 video frame)
Interleave, preload duration   : 522 ms
Writing library                : LAME3.98


IMDB
IMDB Extra
More.Info
Category Japanese Movie
Rating
Size 570.32 MB
Show/Hide Files
4 files
AddDate 04/02/2012
Uploader ANONYMOUS
Speed 0 KB/sec
Down 1031 times
peers seeds: 4, leechers: 1 = 5 peers
Who thanked
Report
Reseed


21/02/2014 08.23 pm

Thank you for sharing!
06/11/2013 05.15 pm


Thank you!
29/08/2012 03.28 pm

Thank you.  Needs an SRT eng sub file.
01/08/2012 03.09 am

thank you very much for sharing!!
18/05/2012 06.26 am

I Can't seem to get the subtitles to open or play can someone help?
16/05/2012 09.18 pm

Thank you v;ery much!smile1.gif
14/05/2012 10.29 am

It isn't in English!!cry.gif
11/05/2012 07.21 pm

Uploaded english subtitle smile1.gif
01/05/2012 02.58 am

Thank You!!! I have been waiting for this movie so long!!! Aaahhh!!! Finally!!




ADS