User Info

ADS

Torrent’s details
Name Swordsman 2013 720p EP 44-56 END (No eng subs)
  You will need to Register or Login to download!
Info Hash 6161c094ed724935f8a2338c96da240d71627f7c
Description NO ENGLISH SUBTITLES YET



Title: 笑傲江湖 / Xiao Ao Jiang Hu
English title: Swordsman
Also known as: State of Divinity / The Smiling, Proud Wanderer
Genre: Wuxia
Language: Mandarin
Subtitles: Chinese (Hardcoded)
Episodes in TV version: 56 (for some reason some episodes have different duration)
Episodes in DVD version: 42
Broadcast network: Hunan TV
Broadcast period: 2013-Feb-06
Related TV series: See Xiao Ao Jiang Hu

Synopsis:
Xiao Ao Jiang Hu is a wuxia novel by Jin Yong. The story is about friendship and love, deception and betrayal, ambition and lust for power. In the middle of it all is, Ling Hu Chong, an orphan who is the senior student of Yue Buqun, leader of Huashan Sect, and the protagonist of the story. The story deals with his journey and development as a swordsman and his witness to the various intrigues which take place in the martial world of the story.

Cast:
Huashan Sect Qi Branch:
  Wallace Huo as Linghu Chong
  Howie Huang as Yue Bu Qun
  Yang Ming Na as Ning Zhong Ze
  Yang Rong as Yue Ling Shan
  Chen Xiao as Lin Ping Zhi
  Zhang Zhuo Wen as Lu Da You
  Cheng Cheng as Lao De Nuo

Huashan Sect Sword Branch:
  Bryan Leung as Feng Qing Yang

Songshan Sect:
  Hu Dong as Zuo Leng Chan

North Hengshan Sect:
  He Jia Yi as Ding Yi
  Deng Sha as Yi Lin

South Hengshan Sect:
  Zong Feng Yan as Liu Zheng Feng

Sun Moon Holy Sect:
  Yuan Shan Shan as Ren Ying Ying
      Jiang Yi Yi as young Ren Ying Ying
  Hei Zi as Ren Wo Xing
  Chen Qiao En as Dongfang Bu Bai
  Zheng Guo Lin as Qu Yang
  Zhang Xue Ying as Qu Fei Yang
  Ren Quan as Dan Qing Sheng

Fu Wei Escort Agency:
  Kou Zhen Hai as Lin Zhen Nan
  Wang Lin as Madam Wang

Qing Cheng Sect:
  Marco Li as Yu Cang Hai

Others:
  Han Dong as Tian Bo Guang
  Lv Jia Rong as Lan Feng Huang
  Tian Yang as Ji Wu Shi
  Dicky Cheung as Hei Bai Zi
  Guo Dong Dong as Gu Tong
  Wang Shuang as Bai Ying
  Wang Ren Jun as Ping Yi Zhi
  He Xin as Luo Ren Jie





Code

General
Format                                   : Matroska
Format version                           : Version 2
File size                                : 1.52 GiB
Duration                                 : 44mn 5s
Overall bit rate                         : 4 947 Kbps
Encoded date                             : UTC 2013-02-07 03:36:45
Writing application                      : mkvmerge v5.8.0 ('No Sleep / Pillow') built on Sep  2 2012 15:37:04
Writing library                          : libebml v1.2.3 + libmatroska v1.3.0

Video
ID                                       : 1
Format                                   : AVC
Format/Info                              : Advanced Video Codec
Format profile                           : High@L4.1
Format settings, CABAC                   : Yes
Format settings, ReFrames                : 5 frames
Codec ID                                 : V_MPEG4/ISO/AVC
Duration                                 : 44mn 5s
Bit rate                                 : 4 500 Kbps
Width                                    : 1 280 pixels
Height                                   : 720 pixels
Display aspect ratio                     : 16:9
Frame rate mode                          : Constant
Frame rate                               : 25.000 fps
Color space                              : YUV
Chroma subsampling                       : 4:2:0
Bit depth                                : 8 bits
Scan type                                : Progressive
Bits/(Pixel*Frame)                       : 0.195
Stream size                              : 1.36 GiB (89%)
Writing library                          : x264 core 129 r2245 bc13772
Language                                 : Chinese
Default                                  : Yes
Forced                                   : No

Audio
ID                                       : 2
Format                                   : AC-3
Format/Info                              : Audio Coding 3
Mode extension                           : CM (complete main)
Format settings, Endianness              : Big
Codec ID                                 : A_AC3
Duration                                 : 44mn 5s
Bit rate mode                            : Constant
Bit rate                                 : 448 Kbps
Channel(s)                               : 6 channels
Channel positions                        : Front: L C R, Side: L R, LFE
Sampling rate                            : 48.0 KHz
Bit depth                                : 16 bits
Compression mode                         : Lossy
Stream size                              : 141 MiB (9%)
Default                                  : Yes
Forced                                   : No

IMDB No IMDB ID been added..
Category Chinese TV 720p-1090p
Rating N/A
Size 14.72 GB
Show/Hide Files
13 files
AddDate 05/03/2013
Uploader ANONYMOUS
Speed 0 KB/sec
Down 432 times
peers seeds: 17, leechers: 0 = 17 peers
Who thanked
Report
Reseed


28/04/2014 10.29 am

good
12/11/2013 01.19 pm

thanks for sharing
22/10/2013 11.41 am

A hell of a Job!angry.gif, retiming these subswink.gif.

1) Credits @VIKI, for the Wanderersthumbsup.gif: Subtitles Brought
To You By: Wanderer Team @Viki

2) All credits @Cosmocraatbeer1.gif for retiming these subs.


See this link for the subs of Ep44 to 56:

http://www.asiatorrents.me/index.php?page=torrent-details&id=12cd097f7b5e62ce91df9a9f4fa6765aa47aa320

09/03/2013 12.27 am

@Tarhan

I think it's better for you to ask help from a mod or admin in the irc. Don't delete or modify any of the torrents you uploaded. It would constitute to cheating of ratio and you will be banned. (I know because i committed such a mistake before.) angel.gif
06/03/2013 11.20 am

OK.
But can someone tell me recommended procedure?
I suppose i must do following:
1. Create batch torrent with all episodes.
2. Wait several days when leechers count on previous torrents decreases to zero.
3. Then delete previous torrents.
Am I right?
06/03/2013 06.21 am

Can you make a complete batch from 1-56?




ADS