User Info

ADS

Torrent’s details
Name Spring Love (2013) ep14 END
  You will need to Register or Login to download!
Info Hash 5dfad67703e742d6c80b8e2829fda454be7a7a5d
Description


http://wiki.d-addicts.com/Mei_Ren_Long_Tang
http://mydramalist.com/taiwanese-drama/5679/onsen-beauty
http://mydramalist.info/title/16160/mei_ren_long_tang

Title: 美人龍湯 / Mei Ren Long Tang
Also known as: Onsen Beauty
Genre: Romance
Episodes: 14
Broadcast network: FTV
Broadcast period: 2013-Jan-27
Air time: Sunday 22:00-23:30
Opening theme song: Hao Xiang Bian Ping Guo (好想變蘋果) by Popu Lady
Ending theme song: Bei Wang Lu (被忘錄) by Aaron Yan
Language: Mandarin
Country: Taiwan
Subtitles: Chinese (hardsubbed) | English (will be added when available)

Cast
   Mike He as Long Tai 龍太 / Long Tian He 龍天賀
   Lin Ying Zhen (林盈臻/大元) as Zhao Ren Mei 趙人美
       Le Le (樂樂) as Childhood Ren Mei
   Nylon Chen as Zhao Ren Hu 趙人虎
       Su Pin Jie (蘇品杰) as Childhood Ren Hu
   Sato Mai (佐藤麻衣) as Kitano Atsuko 北野溫子

Long Hot Spring
   Lei Hong (雷洪) as Long Shou Cheng 龍守成
   Wang Zhong Ping (王中平) as Lao Tu 老涂
   Yan Yi Wen (嚴藝文) as A Pan 阿潘

Mei Ren Hot Spring
   Li Xuan (李璇) as Zeng Mei Ren 曾美人
   Ye Hui Zhi (葉蕙芝) as A Xie 阿謝
   Wang Zi Qiang (王志強) as Lao Zhang 老張

Others
   Fang Wen Lin (方文琳) as Michiko 美智子
   Luo Bei An as Kitano Kenji 北野健二
   Song Xin Ni as A Xiang 小香
   Ah Ben as A Lun 阿倫
   Zhang Hao Ming as A Xiang 阿翔
   Jin Shi Jye (金士傑) as Dr. Jin
   Zhu Lu Hao (朱陸豪) as Yan Ming 嚴明
   Li Zhi Qin (李之勤) as Kate
   Li Guo Chao (李國超) as Village leader

Synopsis
After his mother's death, Long Tai returned to Taiwan in search for his long lost father and twin brother. When people mistook him for his brother, who had left the country, he perpetuated the mistake. The change did not go unnoticed by his brother's foe, Zhao Ren Hu, who had planned on defeating Long Tian He in a festival competition and taking over Long's hot spring. As per agreement, the defeated Zhao sent his sister to Long's house to work as an indenture servant for a year. Although he secretly ordered his sister to spy on Long, the sister had other things in mind.

General
Complete name                  : SpringLove-14.rmvb
Format                         : RealMedia
File size                      : 334 MiB
Duration                       : 1h 12mn
Overall bit rate               : 623 Kbps

Video
ID                             : 1
Format                         : RealVideo 4
Codec ID                       : RV40
Codec ID/Info                  : Based on AVC (H.264), Real Player 9
Duration                       : 1h 12mn
Bit rate                       : 559 Kbps
Width                          : 704 pixels
Height                         : 528 pixels
Display aspect ratio           : 4:3
Frame rate                     : 29.970 fps
Bits/(Pixel*Frame)             : 0.050
Stream size                    : 288 MiB (86%)

Audio
ID                             : 0
Format                         : Cooker
Codec ID                       : cook
Codec ID/Info                  : Based on G.722.1, Real Player 6
Duration                       : 1h 12mn
Bit rate                       : 64.1 Kbps
Channel(s)                     : 2 channels
Sampling rate                  : 44.1 KHz
Bit depth                      : 16 bits
Stream size                    : 33.0 MiB (10%)

IMDB No IMDB ID been added..
Category Taiwanese TV
Rating N/A
Size 333.65 MB
Show/Hide Files
1 file
AddDate 07/05/2013
Uploader ANONYMOUS
Speed 0 KB/sec
Down 43 times
peers seeds: 0, leechers: 0 = 0 peers
Who thanked
Report
Reseed


No comments...




ADS