User Info

ADS

Torrent’s details
Name Beyond the Clouds E12 XVID LIMO
  You will need to Register or Login to download!
Info Hash 5d60f80ca03586f52de916186b5869aa4152ee52
Description

Details
Title: 태양은 가득히 / Taeyangeun Gadeukhi
Also known as: Full Sun / The Sun / Red Sun
Genre: Melodrama, romance, action, crime, thriller
Episodes: 16
Broadcast network: KBS2
Broadcast period: 2014-Feb-17 to 2014-???-??
Air time: Monday & Tuesday 22:00
Subtitles by VIKI and DramaFever will be added later

Synopsis
In the night of a glamorous jewel exhibition opening in Bangkok, a gun shot rang out. A young man and a young woman, who were reaching toward climax of life, are facing critically each other across the gun shot. Han Young Won is a fiance of a murdered one and Jung Se Ro is the one who is blamed for murdering Young Won’s fiance.
Five years later, Se Ro, who has got a new life with a new name, and Young Won, a cold-hearted meet again. Those two seemed to have crossed the Rubicon, but Se Ro floats his boat, ‘desire to money’ and rows the boat with an intense feeling of ‘revenge’. Believing that at the end of the Rubicon, there will be ‘doom’ of those two who have destroyed his life, ‘Han Young Won and Bel Laffair.’
However, there was ‘love’. At the end of the Rubicon that Se Ro tried to cross, there was no fury, hatred, or revenge, but love.
Will they get over ‘a tragedy of the evening’ with broken water and dreadful depth, and then love and forgive each other?

Main Cast
Yoon Kye Sang as Jung Se Ro (27) - Lee Eun Soo (32)
Han Ji Hye as Han Young Won (25-30)
Jo Jin Woong as Park Kang Jae (38)
Kim Yoo Ri as Seo Jae In (30)





Code
Video
ID                                       : 0
Format                                   : MPEG-4 Visual
Format profile                           : Advanced Simple@L5
Format settings, BVOP                    : No
Format settings, QPel                    : No
Format settings, GMC                     : No warppoints
Format settings, Matrix                  : Default (MPEG)
Codec ID                                 : XVID
Codec ID/Hint                            : XviD
Duration                                 : 1h 6mn
Bit rate                                 : 1 391 Kbps
Width                                    : 624 pixels
Height                                   : 352 pixels
Display aspect ratio                     : 16:9
Frame rate                               : 29.970 fps
Color space                              : YUV
Chroma subsampling                       : 4:2:0
Bit depth                                : 8 bits
Scan type                                : Progressive
Compression mode                         : Lossy
Bits/(Pixel*Frame)                       : 0.211
Stream size                              : 660 MiB (87%)
Writing library                          : XviD 1.2.1 (UTC 2008-12-04)

Audio
ID                                       : 1
Format                                   : MPEG Audio
Format version                           : Version 1
Format profile                           : Layer 3
Mode                                     : Joint stereo
Mode extension                           : MS Stereo
Codec ID                                 : 55
Codec ID/Hint                            : MP3
Duration                                 : 1h 6mn
Bit rate mode                            : Constant
Bit rate                                 : 128 Kbps
Channel(s)                               : 2 channels
Sampling rate                            : 48.0 KHz
Compression mode                         : Lossy
Stream size                              : 60.8 MiB (8%)
Alignment                                : Aligned on interleaves
Writing library                          : LAME3.98.2

IMDB No IMDB ID been added..
Category Korean TV
Rating
Size 702.82 MB
Show/Hide Files
1 file
AddDate 25/03/2014
Uploader ANONYMOUS
Speed 0 KB/sec
Down 262 times
peers seeds: 2, leechers: 0 = 2 peers
Who thanked
Report
Reseed


26/03/2014 03.57 pm

Thanks a lot! I adore this drama! smile2.gif




ADS