User Info

ADS

Torrent’s details
Name Only You (2005) Complete Series
  You will need to Register or Login to download!
Info Hash 5b3bd5dafe04213d0ccbae7e1c4859e426f109da
Description


http://wiki.d-addicts.com/Only_You_(SBS)
http://www.hancinema.net/korean_drama_Only_You.php
http://asianmediawiki.com/Only_You_(2005-South_Korea-SBS)

Title: Only You
Revised romanization: Eunriyu
Hangul: 온리유
Director: Choi Mun-Seok
Writer: Seong-yeon Hwang
Network: SBS
Episodes: 16
Release Date: June 4 - July 24, 2005
Runtime: 21:45
Language: Korean
Country: South Korea
Subtitles: English (Hardsubbed)

Production Credits
Chief Producer: Moon Jung Soo
Producer: Kim Yang
Writer: Hwang Sung Yun
Director: Choi Moon Suk
Assistant Director: Boo Sung Chul

Main Cast
Han Chae-Young - Eun-jae Cha
Jo Hyeon-Jae - Lee-jun Han
Lee Cheon-Hee - Hyeon-seong Jeong
Hong Soo-Hyun - Su-yeon Ji
Bin (빈) - Su-jae Cha
Song Ok-Suk - Mi-jeong Park
Jeong Won-Jung - Seong-taek Cha
Lee Byeong-Jun - Jin-sol Cha
Jeong Wook (정욱) - Seung-ryeol Han
Jeong Ae-Ri - Hee-jin
Lee A-Hyeon - Lee-kyeong Ahn

Synopsis
Eun Jae (Han Chae Young) was a stubborn and head-strong girl who had a passion for cooking. She did not have any interest in going to college and with the help of her hig school friend, Jung Hyun Sung (Lee Chun Hee)ran away to Italy to enroll in a cooking school. Jung Hyun Sung who loved her dearly went along with her.
Han Yi-Joon (Jo Hyun Jae) came from a wealthy family. He travelled to Italy looking for his mother and there he ran into Eun Jae, who had also been seeking the same person to learn the secrets to making great pasta. She comforted Yi-Joon, who was distraught over his mother's remarrying, and they ended up making love. Yi Joon left Eun Jae the next morning over some misunderstanding. Eun Jae became pregnant and had no choice but to give up her dream and to return to Korea.
6 years later, Eun Jae was working in low paying restaurant jobs, Yi-Joon atarted to take over the operations of his family's business, and Hyun Sung was working as a chef for one of the restarurants owned by Yi-Joon and managed by Ji Soo Yeon (Hong Soo Hyun). Hyun Sung was good with Eun Jae's son and he was helping out Eun Jae's whole family financially as they had fallen on hard times. Yi-Joon found out that he still had feelings for Eun Jae as they ran into each other when he was looking for a new chef for his restaurant. The dramatic tension unfolds as the four main characters worked out their feelings for each other.

General
Complete name                    : onlyyou01.avi
Format                           : AVI
Format/Info                      : Audio Video Interleave
File size                        : 216 MiB
Duration                         : 1h 1mn
Overall bit rate                 : 490 Kbps
Writing application              : VirtualDubMod 1.5.10.2 (build 2540/release)
Writing library                  : VirtualDubMod build 2540/release

Video
ID                               : 0
Format                           : MPEG-4 Visual
Format profile                   : Advanced Simple@L5
Format settings, BVOP            : Yes
Format settings, QPel            : Yes
Format settings, GMC             : 3 warppoints
Format settings, Matrix          : Default (H.263)
Muxing mode                      : Packed bitstream
Codec ID                         : XVID
Codec ID/Hint                    : XviD
Duration                         : 1h 1mn
Bit rate                         : 422 Kbps
Width                            : 640 pixels
Height                           : 480 pixels
Display aspect ratio             : 4:3
Frame rate                       : 29.970 fps
Color space                      : YUV
Chroma subsampling               : 4:2:0
Bit depth                        : 8 bits
Scan type                        : Progressive
Bits/(Pixel*Frame)               : 0.046
Stream size                      : 186 MiB (86%)
Writing library                  : XviD 1.0.3 (UTC 2004-12-20)

Audio
ID                               : 1
Format                           : MPEG Audio
Format version                   : Version 2
Format profile                   : Layer 3
Mode                             : Joint stereo
Mode extension                   : Intensity Stereo + MS Stereo
Codec ID                         : 55
Codec ID/Hint                    : MP3
Duration                         : 1h 1mn
Bit rate mode                    : Constant
Bit rate                         : 56.0 Kbps
Channel(s)                       : 2 channels
Sampling rate                    : 24.0 KHz
Stream size                      : 24.7 MiB (11%)
Alignment                        : Split accross interleaves
Interleave, duration             : 33 ms (1.00 video frame)
Interleave, preload duration     : 500 ms

IMDB
IMDB Extra
More.Info
Category Korean TV
Rating
Size 3.43 GB
Show/Hide Files
19 files
AddDate 13/10/2010
Uploader ANONYMOUS
Speed 29.85 KB/sec
Down 460 times
peers seeds: 7, leechers: 1 = 8 peers
Who thanked
Report
Reseed


03/05/2014 06.11 am

I'm stuck at 71.1% sad.gif Please seed. Thanks, btw! smile1.gif
25/02/2014 12.31 pm

Subtitles: English (Hardsubbed)
25/02/2014 12.27 pm

could you pls. tell me if this is with english subtitle?smile1.gif
03/11/2013 11.11 pm

Thank you, one and only seeder. Without you this might not have been possible. Mine likewise will be left to seed. Thanks again. thumbsup.gif
03/11/2013 11.03 pm

As always, uploader, you are amazing... thank you thumbsup.gif
16/05/2013 02.37 pm

seeeeeeeeeeeeedddddddddd pleaaasssseeeeeeee.... sad.gif cry.gifcry.gif
20/04/2013 02.28 pm

thanks for uploading this drama..though i hope i will be able to finish downloading everything before the free leech ends tonight.. smile1.gif
19/04/2013 11.37 pm

It took me three days to upload this drama, but finally my upload completed and i would like to thank those who helped me seed in for this drama. Thank you, i will be seed in for this drama for those who are uploading. Again Thank you.grin.gif
17/04/2013 04.17 am

Anyone! more seeds please. thank you.
16/04/2013 09.45 pm

I watched this drama once and this is a great drama and very entertaining and great love story. Looking forward to upload this drama so I can watch it again and I would like to request more seeds on this drama. Thank you
31/03/2013 12.15 pm

please seed.. pleeeeeasesleep.gifsad.gif
smile1.gif
04/07/2012 10.57 pm

Please seed! Thank You!
24/05/2011 03.37 am

i really love han chae young's character here, i fell in love with her because of her character - Cha Eun Jae laugh.gif
01/03/2011 06.39 pm

I love this drama♥,thanks for the upload smile1.gif tongue.gif
13/10/2010 11.19 pm

thank you
13/10/2010 09.59 pm

Thanx again for ur hard work, it's been appreciated a lot, but pls don't rectrict anymore your upload speed for the new torrents to 10 kB/s, thanx again smile1.gif




ADS