User Info

ADS

Torrent’s details
Name Drug War.2013.BDRip.2Audio.AC3.x264-LooKMaNe
  You will need to Register or Login to download!
Info Hash 5b29c859cb54b555e44c0d3dac9e41c239fe49be
Description

Movie: Drug War
Chinese: Du zhan 毒戰
Director: Johnnie To
Producer: Johnnie To, Wai Ka-Fai
Cinematographer: Cheng Siu-keung
Release Date: November 10, 2012
Runtime: 129 min.
Genre: Crime
Language: Cantonese | Mandarin
Country: Hong Kong
IMDB link: http://www.imdb.com/title/tt2165735

Cast:
Louis Koo as Choi Tin-ming/Timmy Choi
Sun Honglei as Captain Zhang Lei
Crystal Huang as Yang Xiaobei
Wallace Chung as Guo Weijun
Gao Yunxiang as Xu Guoxiang
Li Guangjie as Chen Shixiong
Guo Tao as Senior Dumb

Plot:
The Tianjin police force gets a lucky break in their war against drugs when they capture an amphetamine manufacturer. Threatened with the death sentence, the gangster does whatever it takes to stay alive, even if that means turning informer on his bosses and family in exchange for his own life.


Subtitles: English, Chinese


MEDIAINFO
Spoiler:show


SOURCE: BD50 by HDWing

General
Unique ID                                : 247384022210683915664522741087646457754 (0xBA1C6DFB2C61532CBDC48BF922EB1F9A)
Complete name                            : Drug War.2013.BDRip.2Audio.AC3.x264-LooKMaNe.mkv
Format                                   : Matroska
Format version                           : Version 4 / Version 2
File size                                : 1.56 GiB
Duration                                 : 1h 46mn
Overall bit rate                         : 2 096 Kbps
Encoded date                             : UTC 2013-06-18 20:21:29
Writing application                      : mkvmerge v6.2.0 ('Promised Land') built on Apr 28 2013 12:22:01
Writing library                          : libebml v1.3.0 + libmatroska v1.4.0

Video
ID                                       : 1
Format                                   : AVC
Format/Info                              : Advanced Video Codec
Format profile                           : High@L3.1
Format settings, CABAC                   : Yes
Format settings, ReFrames                : 12 frames
Codec ID                                 : V_MPEG4/ISO/AVC
Duration                                 : 1h 46mn
Bit rate                                 : 775 Kbps
Width                                    : 720 pixels
Height                                   : 304 pixels
Display aspect ratio                     : 2.35:1
Frame rate mode                          : Constant
Frame rate                               : 24.000 fps
Color space                              : YUV
Chroma subsampling                       : 4:2:0
Bit depth                                : 8 bits
Scan type                                : Progressive
Bits/(Pixel*Frame)                       : 0.147
Stream size                              : 590 MiB (37%)
Writing library                          : x264 core 133 r2334 a3ac64b
Encoding settings                        : cabac=1 / ref=12 / deblock=1:-3:-3 / analyse=0x3:0x133 / me=umh / subme=10 / psy=1 / psy_rd=1.00:0.15 / mixed_ref=1 / me_range=24 / chroma_me=1 / trellis=2 / 8x8dct=1 / cqm=0 / deadzone=21,11 / fast_pskip=0 / chroma_qp_offset=-3 / threads=12 / lookahead_threads=1 / sliced_threads=0 / nr=0 / decimate=1 / interlaced=0 / bluray_compat=0 / constrained_intra=0 / bframes=6 / b_pyramid=2 / b_adapt=2 / b_bias=0 / direct=3 / weightb=1 / open_gop=0 / weightp=2 / keyint=240 / keyint_min=24 / scenecut=40 / intra_refresh=0 / rc_lookahead=60 / rc=crf / mbtree=1 / crf=18.0 / qcomp=0.60 / qpmin=0 / qpmax=69 / qpstep=4 / vbv_maxrate=17500 / vbv_bufsize=17500 / crf_max=0.0 / nal_hrd=none / ip_ratio=1.40 / aq=1:1.00
Default                                  : Yes
Forced                                   : No

Audio #1
ID                                       : 2
Format                                   : AC-3
Format/Info                              : Audio Coding 3
Mode extension                           : CM (complete main)
Format settings, Endianness              : Big
Codec ID                                 : A_AC3
Duration                                 : 1h 46mn
Bit rate mode                            : Constant
Bit rate                                 : 640 Kbps
Channel(s)                               : 6 channels
Channel positions                        : Front: L C R, Side: L R, LFE
Sampling rate                            : 48.0 KHz
Bit depth                                : 16 bits
Compression mode                         : Lossy
Stream size                              : 488 MiB (31%)
Title                                    : Cantonese
Language                                 : Chinese
Default                                  : Yes
Forced                                   : No

Audio #2
ID                                       : 3
Format                                   : AC-3
Format/Info                              : Audio Coding 3
Mode extension                           : CM (complete main)
Format settings, Endianness              : Big
Codec ID                                 : A_AC3
Duration                                 : 1h 46mn
Bit rate mode                            : Constant
Bit rate                                 : 640 Kbps
Channel(s)                               : 6 channels
Channel positions                        : Front: L C R, Side: L R, LFE
Sampling rate                            : 48.0 KHz
Bit depth                                : 16 bits
Compression mode                         : Lossy
Stream size                              : 488 MiB (31%)
Title                                    : Mandarin
Language                                 : Chinese
Default                                  : No
Forced                                   : No

Text #1
ID                                       : 4
Format                                   : VobSub
Muxing mode                              : zlib
Codec ID                                 : S_VOBSUB
Codec ID/Info                            : The same subtitle format used on DVDs
Language                                 : English
Default                                  : Yes
Forced                                   : No

Text #2
ID                                       : 5
Format                                   : VobSub
Muxing mode                              : zlib
Codec ID                                 : S_VOBSUB
Codec ID/Info                            : The same subtitle format used on DVDs
Language                                 : Chinese
Default                                  : No
Forced                                   : No

Text #3
ID                                       : 6
Format                                   : VobSub
Muxing mode                              : zlib
Codec ID                                 : S_VOBSUB
Codec ID/Info                            : The same subtitle format used on DVDs
Language                                 : Chinese
Default                                  : No
Forced                                   : No

Menu
00:00:00.000                             : en:00:00:00.000
00:06:57.000                             : en:00:06:57.000
00:10:02.333                             : en:00:10:02.333
00:14:01.542                             : en:00:14:01.542
00:19:23.500                             : en:00:19:23.500
00:25:38.333                             : en:00:25:38.333
00:31:08.542                             : en:00:31:08.542
00:36:40.208                             : en:00:36:40.208
00:42:35.542                             : en:00:42:35.542
00:47:40.375                             : en:00:47:40.375
00:53:42.167                             : en:00:53:42.167
00:57:52.292                             : en:00:57:52.292
01:04:06.792                             : en:01:04:06.792
01:10:32.125                             : en:01:10:32.125
01:16:18.833                             : en:01:16:18.833
01:19:31.750                             : en:01:19:31.750
01:24:57.667                             : en:01:24:57.667
01:30:50.042                             : en:01:30:50.042
01:36:12.250                             : en:01:36:12.250
01:42:22.833                             : en:01:42:22.833







IMDB
IMDB Extra
More.Info
Category Hong Kong Movie
Rating
Size 1.56 GB
Show/Hide Files
1 file
AddDate 18/06/2013
Uploader ANONYMOUS
Speed 0 KB/sec
Down 4063 times
peers seeds: 73, leechers: 0 = 73 peers
Who thanked
Report
Reseed


15/02/2014 05.00 am

no english sub??
08/10/2013 08.28 pm

Thank you Uploader and Seeds.
The movie was a O.K.

Korean 'New World' was better.Thank you LooKMaNe
16/09/2013 07.09 pm

Thanks for release, is great movie.
16/09/2013 07.09 pm

Thanks for release, is great movie.
10/09/2013 03.13 am

how do i make the audio cantonese?  i am using VLC player and both audio channels are in mandarin.
10/08/2013 02.25 am

Awesome movie!!!!
25/07/2013 08.33 pm

great movie mucho gracias
01/07/2013 05.26 am

Good film.
22/06/2013 03.26 pm

Thanks... v-8 a-9
22/06/2013 10.27 am

Thank you very much for this! Have been waiting for the next Johnnie To movie to come! Cheers!
20/06/2013 12.57 pm

This movie is in Mandarin...Not Cantonese. Thanks anyways.
20/06/2013 03.14 am

Great film
19/06/2013 04.17 pm

thanks for the share, with cantonese audio and eng subs. smile1.gif
19/06/2013 08.00 am

Great! thanks!
19/06/2013 05.14 am

Thank you grin.gif
18/06/2013 09.50 pm

That's sweet! Thanks lookamane!! But in description: Movie: Lesson of the Evil ??? tongue.gif
18/06/2013 08.51 pm

danke schoen.
18/06/2013 08.46 pm

thumbsup.gif aite LookMaNe bounce.gif
18/06/2013 08.41 pm

Thanks again for the great work smile1.gif




ADS