User Info

ADS

Torrent’s details
Name Yagyu Jubei Abaretabi (Sequel to Yagyu Conspiracy TV Series) Sonny Chiba
  You will need to Register or Login to download!
Info Hash 59ef1e952a0297455d86f620b8fe4b1272a1ff92
Description Yagyu Jubei Abaretabi "Sequel to Yagyu Conspiracy TV Series"



YAGYU JUBEI ABARETABI
The Sequel to the Yagyu Conspiracy
Starring : Sonny Chiba

In the 15th year of the Kanei Era, a martial arts tournament is held at Edo Castle. In attendance are Shôgun Iemitsu Tokugawa, his sword instructor Munenori Yagyû: Lord of Tajima, and his son Jûbei Yagyû, and from Satsuma, Iehisa Shimazu.

At the conclusion of the tournament, Prime Minister Shimazu's 3 fighters, the Nangô brothers, end up victorious. After Munenori deflects a challenge to Jûbei by the 3 men, Jûbei and Iemitsu agree to put on a display of the Yagyû's famous Shinkage-ryû style of swordfighting.

During the bout, Jûbei goes mad and repeatedly attacks the Shôgun, his father, the Nangô brothers and the Samurai in attendance, before riding off on horseback. With his son Jûbei now a wanted criminal and his son Matajûrô confined to the Yagyû village, Munenori must make a difficult decision: who will take over for Jûbei and inspect the Nakasen route between Edo and Kyôto.

He decides his daughter Akane will disguise herself as a man and call herself Nuinosuke Yagyû. Joining Akane will be longtime Yagyû family friend Tarobei Kaburagi and Ura-Yagyû Arisuke Arisawa. Arisuke's sister Akemi, another member of the Ura-Yagyû ("Secret" Yagyu), will also watch out for Akane and act as chief spy for the group.

Also helping Akane on her journey will be Jûbei, whose madness was all a ruse devised by Tajima and the Shôgun. Working from the shadows, Jûbei disguises himself both as Maboroshi Tengu, a Phantom Goblin who "lurks in the darkness and destroys evil", and as an old man named Gonbei who befriends Okoma and her Yume-no-ya troupe, a groupe of travelling stage performers. Working with Jûbei are the other members of the Ura-Yagyû: Ryûta, Shinsuke, Sôhei, Okiri and Oen, who disguise themselves as accrobats and join the Yume-no-ya troupe. From time to time, wandering half-brother Matahei also assists Akane and Jubei on their mission.

As the journey progesses, Akane and her group encounter all sorts of corruption by local town officials and a conspiracy against the Shôgunate by the Satsuma clan led by Iehisa Shimazu. Akane also discovers the truth about her past and is reunited with a long lost relative before finally putting an end to the plot against the Shôgun.

TV Broadcast Quality
This TV series has 26 episodes
Color Fullscreen. Japanese language with English subtitles.

General
Complete name                            : Yagyu Jubei Abaretabi
Format                                   : MPEG-4
Format profile                           : Base Media
Codec ID                                 : isom
File size                                : 698 MiB
Duration                                 : 46mn 2s
Overall bit rate mode                    : Variable
Overall bit rate                         : 2 121 Kbps
Writing application                      : Lavf54.29.104

Video
ID                                       : 1
Format                                   : MPEG-4 Visual
Format profile                           : Simple@L1
Format settings, BVOP                    : No
Format settings, QPel                    : No
Format settings, GMC                     : No warppoints
Format settings, Matrix                  : Default (H.263)
Codec ID                                 : 20
Duration                                 : 46mn 2s
Bit rate mode                            : Variable
Bit rate                                 : 2 048 Kbps
Maximum bit rate                         : 9 500 Kbps
Width                                    : 512 pixels
Height                                   : 384 pixels
Display aspect ratio                     : 4:3
Original display aspect ratio            : 4:3
Frame rate mode                          : Variable
Frame rate                               : 30.000 fps
Minimum frame rate                       : 29.970 fps
Maximum frame rate                       : 30.030 fps
Color space                              : YUV
Chroma subsampling                       : 4:2:0
Bit depth                                : 8 bits
Scan type                                : Progressive
Compression mode                         : Lossy
Bits/(Pixel*Frame)                       : 0.347
Stream size                              : 674 MiB (97%)
Writing library                          : Lavc51.40.4

Audio
ID                                       : 2
Format                                   : AAC
Format/Info                              : Advanced Audio Codec
Format profile                           : LC
Codec ID                                 : 40
Duration                                 : 46mn 2s
Bit rate mode                            : Variable
Bit rate                                 : 64.0 Kbps
Maximum bit rate                         : 128 Kbps
Channel(s)                               : 2 channels
Channel positions                        : Front: L R
Sampling rate                            : 44.1 KHz
Compression mode                         : Lossy
Stream size                              : 21.1 MiB (3%)

IMDB No IMDB ID been added..
Category Japanese TV
Rating
Size 17.68 GB
Show/Hide Files
26 files
AddDate 18/03/2013
Uploader ANONYMOUS
Speed 0 KB/sec
Down 91 times
peers seeds: 1, leechers: 0 = 1 peers
Who thanked
Report
Reseed


28/03/2013 09.08 am

very cool. thanks!
26/03/2013 09.50 pm

I have begun to prepare the upload of Yagyu Abaretabi and it will be seeded by this weekend. Although Yagyu Abaretabi was released 1 yr before Yagyu Jubei Abaretabi (so much for cut and paste descriptions) just about everyone considers Yagyu Jubei Abaretabi the better production. Many consider them both as sequels to the Yagyu Conspiracy as the story line forked into 2 paths rather than follow a western style linear story line of continuation of a series. At this point I am considering if I should make Yagyu Abaretabi a gold bonus by adding in a bonus preview of Shin Kage No Gundan (New Shadow Warriors) series which is the 2003 6 episode direct to DVD production or perhaps previews of the rare lost episodes of the complete Zatoichi season 4. Both are in project stage with time consuming subtitling in progress. While I can set sub type and timing I have to wait on my translators to catch up
25/03/2013 07.34 am

one other thing, according to the Japanese Sonny Chiba wiki this is the sequel to Yagyu Abaretabi.
25/03/2013 06.54 am

Anybody have the other series Yagyu Abaretabe?
18/03/2013 04.25 am

Chiba is GOD!!! Thank you for bringing this series to the site. Your freaking awesome!




ADS