User Info

ADS

Torrent’s details
Name [KSN] Running Man EP 137 720P ENG SUBBED
  You will need to Register or Login to download!
Info Hash 59444a0abc3f9ccd73f27e15298899792a2524f9
Description


Guests: Uee (AfterSchool) and Noh Sayeon
Venues: Jo In-joo Boxing Club (Wonhyoro-dong, Yongsan-gu, Seoul)

Running Man (Korean: 런닝맨) is a South Korean variety show; a part of SBS's Good Sunday lineup, along with K-pop Star. This show is classified as an "urban action variety"; a never-before-seen new genre of variety shows. The MCs and guests complete missions in a landmark to win the race. It first aired on July 11, 2010 with 136 episodes aired.





Quote:

Complete name : [KSN]Running.Man.137.720P.mp4
Format : MPEG-4
Format profile : Base Media
Codec ID : isom
File size : 1.54 GiB
Duration : 1h 25mn
Overall bit rate mode : Variable
Overall bit rate : 2 584 Kbps
Encoded date : UTC 2013-03-18 18:59:16
Tagged date : UTC 2013-03-18 18:59:16

Video
ID : 1
Format : AVC
Format/Info : Advanced Video Codec
Format profile : High@L4.1
Format settings, CABAC : Yes
Format settings, ReFrames : 4 frames
Codec ID : avc1
Codec ID/Info : Advanced Video Coding
Duration : 1h 25mn
Bit rate : 2 388 Kbps
Maximum bit rate : 5 663 Kbps
Width : 1 280 pixels
Height : 720 pixels
Display aspect ratio : 16:9
Frame rate mode : Constant
Frame rate : 29.970 fps
Color space : YUV
Chroma subsampling : 4:2:0
Bit depth : 8 bits
Scan type : Progressive
Bits/(Pixel*Frame) : 0.086
Stream size : 1.43 GiB (92%)
Title : 264#trackID=1:fps=29.97@GPAC0.5.1-DEV-rev4283
Writing library : x264 core 129 r2245 bc13772
Encoding settings : cabac=1 / ref=3 / deblock=1:0:0 / analyse=0x3:0x113 / me=hex / subme=7 / psy=1 / psy_rd=1.00:0.00 / mixed_ref=1 / me_range=16 / chroma_me=1 / trellis=1 / 8x8dct=1 / cqm=0 / deadzone=21,11 / fast_pskip=1 / chroma_qp_offset=-2 / threads=12 / lookahead_threads=2 / sliced_threads=0 / nr=0 / decimate=1 / interlaced=0 / bluray_compat=0 / constrained_intra=0 / bframes=3 / b_pyramid=2 / b_adapt=1 / b_bias=0 / direct=1 / weightb=1 / open_gop=0 / weightp=2 / keyint=250 / keyint_min=25 / scenecut=40 / intra_refresh=0 / rc_lookahead=40 / rc=crf / mbtree=1 / crf=24.0 / qcomp=0.60 / qpmin=0 / qpmax=69 / qpstep=4 / ip_ratio=1.40 / aq=1:1.00
Encoded date : UTC 2013-03-18 18:59:16
Tagged date : UTC 2013-03-18 18:59:26

Audio
ID : 2
Format : AAC
Format/Info : Advanced Audio Codec
Format profile : LC
Codec ID : 40
Duration : 1h 25mn
Bit rate mode : Variable
Bit rate : 192 Kbps
Maximum bit rate : 199 Kbps
Channel(s) : 2 channels
Channel positions : Front: L R
Sampling rate : 48.0 KHz
Compression mode : Lossy
Stream size : 117 MiB (7%)
Encoded date : UTC 2013-03-18 18:12:47
Tagged date : UTC 2013-03-18 18:59:26



IMDB No IMDB ID been added..
Category Korean TV
Rating
Size 1.54 GB
Show/Hide Files
1 file
AddDate 19/03/2013
Uploader ANONYMOUS
Speed 0 KB/sec
Down 1716 times
peers seeds: 5, leechers: 0 = 5 peers
Who thanked
Report
Reseed


22/03/2013 07.06 am

bro how do you get that much upload? are you using seedbox of any kind? thanx neway group.gif
21/03/2013 10.48 am

Will be watching this later. I can't wait. Noh Sa Yeon is very funny and straightforward and I aodre her for that. Thanks for this! grin.gif
20/03/2013 07.22 pm

Uee is on this episode, hell yeah! Thanks!
20/03/2013 05.23 pm

Thank Yougrin.gif
20/03/2013 12.50 am

thankslaugh.gif
19/03/2013 08.36 pm

thanks! smile1.gif
19/03/2013 07.43 pm

screenshots are correct
19/03/2013 05.09 pm

If you want 360p, just watch it from kshownow, quality is so bad lol
19/03/2013 03.01 pm

ep 137 360p please :'))sad.gifsad.gifsad.giftongue.gif tongue.gif tongue.gif tongue.gif tongue.gif tongue.gif smile2.gif smile2.gif smile2.gif smile2.gif
19/03/2013 12.41 pm

Always awkward when you get the torrent late... Hardly ever get any upload done sad.gif
19/03/2013 12.27 pm

Thank, im guessing screenshots got updated tongue.gif
19/03/2013 09.22 am

THANK YOU~
19/03/2013 07.22 am

Thank You!
19/03/2013 07.17 am

yay for 720p!
19/03/2013 07.13 am

tenx for d uplod...wink.gif
19/03/2013 07.02 am

edited laugh.gif
19/03/2013 06.44 am

Thanks for the upload.

Screenshots are wrong though. The screenshots are of episode 136.




ADS