User Info

ADS

Torrent’s details
Name Unbeatable.2013.BluRay.1080p.AC3.x264-CHD (English Sub)
  You will need to Register or Login to download!
Info Hash 5679e393f51ae6c50444416c80aa5d6c0de6dd94
Description

Title: Unbeatable/ 激戰 / Ji zhan
Director: Dante Lam
Writer: Dante Lam,Jack Ng,Fung Chi-fung
Genre: Action | Drama  
Language: Cantonese
Country: Hong Kong | China
Year: 2013
Subtitle: Chinese/Viet/English
Synopsis:
Fai (Nick Cheung), once a world champion in boxing, escapes to Macau from the loan sharks and unexpectedly encounters Qi (Eddie Peng), a young chap who is determined to win a boxing match. Fai becomes Qi’s mentor and rediscovers his passion to fight not only in the ring but for his life and ones he cares.
Cast:

Screens:






Trailer:



Quote:
Video
ID                             : 1
Format                         : AVC
Format/Info                    : Advanced Video Codec
Format profile                 : High@L4.1
Format settings, CABAC         : Yes
Format settings, ReFrames      : 4 frames
Codec ID                       : V_MPEG4/ISO/AVC
Duration                       : 1h 56mn
Bit rate                       : 12.8 Mbps
Width                          : 1 920 pixels
Height                         : 804 pixels
Display aspect ratio           : 2.40:1
Frame rate mode                : Constant
Frame rate                     : 24.000 fps
Color space                    : YUV
Chroma subsampling             : 4:2:0
Bit depth                      : 8 bits
Scan type                      : Progressive
Bits/(Pixel*Frame)             : 0.345
Stream size                    : 10.1 GiB (93%)
Title                          : Unbeatable.2013.BluRay.1080p.AC3.x264-CHD
Writing library                : x264 core 135 r2345 f0c1c53
Encoding settings              : cabac=1 / ref=4 / deblock=1:-3:-3 / analyse=0x3:0x113 / me=umh / subme=10 / psy=1 / psy_rd=1.05:0.10 / mixed_ref=1 / me_range=48 / chroma_me=1 / trellis=2 / 8x8dct=1 / cqm=0 / deadzone=21,11 / fast_pskip=0 / chroma_qp_offset=-2 / threads=12 / lookahead_threads=1 / sliced_threads=0 / nr=0 / decimate=1 / interlaced=0 / bluray_compat=0 / constrained_intra=0 / bframes=6 / b_pyramid=2 / b_adapt=2 / b_bias=0 / direct=3 / weightb=1 / open_gop=0 / weightp=2 / keyint=250 / keyint_min=24 / scenecut=40 / intra_refresh=0 / rc_lookahead=40 / rc=2pass / mbtree=0 / bitrate=12784 / ratetol=2.0 / qcomp=0.70 / qpmin=0 / qpmax=69 / qpstep=4 / cplxblur=20.0 / qblur=0.5 / vbv_maxrate=40000 / vbv_bufsize=30000 / nal_hrd=none / ip_ratio=1.40 / pb_ratio=1.30 / aq=2:1.00
Language                       : Chinese
Default                        : No
Forced                         : No

Audio
ID                             : 2
Format                         : AC-3
Format/Info                    : Audio Coding 3
Mode extension                 : CM (complete main)
Format settings, Endianness    : Big
Codec ID                       : A_AC3
Duration                       : 1h 56mn
Bit rate mode                  : Constant
Bit rate                       : 640 Kbps
Channel(s)                     : 6 channels
Channel positions              : Front: L C R, Side: L R, LFE
Sampling rate                  : 48.0 KHz
Bit depth                      : 16 bits
Compression mode               : Lossy
Stream size                    : 531 MiB (5%)
Title                          : ac3 5.1 640kbps
Language                       : Chinese
Default                        : Yes
Forced                         : No


IMDB
IMDB Extra
More.Info
Category Hong Kong Movie 720p-1080p
Rating N/A
Size 10.88 GB
Show/Hide Files
1 file
AddDate 08/12/2013
Uploader ANONYMOUS
Speed 0 KB/sec
Down 598 times
peers seeds: 11, leechers: 0 = 11 peers
Who thanked
Report
Reseed


13/01/2014 04.29 am

thx for sharing
31/12/2013 08.16 pm

I stand corrected.. the first part is in Mandarin, then the part in HK is in Cantonese.
31/12/2013 07.52 pm

The audio in this movie is Mandarin, not Cantonese.
08/12/2013 10.34 am

tank you very much
08/12/2013 10.20 am

nice, coolerhotter!




ADS