User Info

ADS

Torrent’s details
Name Bagets (1984) DVDRip XViD Soft EngSub
  You will need to Register or Login to download!
Info Hash 567667161f9b5a47826e4b79d042d12f5ba211dd
Description Bagets (1984)
Genre: Comedy/Drama
Runtime: 1:56:26
Country: Philippines
Language: Tagalog
Subtitles: English (External) idx, sub
IMDB Link: http://www.imdb.com/title/tt0325042/

Experiencing the forbidden. Experiencing rejection. Hating your parents. Hating the world around you. Discovering what's hot. Discovering what's cool. Discovering your first true love. Discovering who you are. Growing up can be such a wild time. But not when you've got the best guys to hang out with. Five chaste young men immerse themselves in the superficialities and superfluity of adolescence over the course of their last year in high school. But as they make their gradual transition from boyhood to manhood, they realize it is their formidable bond that stands as the real deal. Starring a generation that gave rise to a new youth culture.


Media Info
Format                           : AVI
Format/Info                      : Audio Video Interleave
File size                        : 811 MiB
Duration                         : 1h 56mn
Overall bit rate                 : 974 Kbps
Writing application              : VirtualDubMod 1.5.4.1 (build 2178/release)
Writing library                  : VirtualDubMod build 2178/release

Video
ID                               : 0
Format                           : MPEG-4 Visual
Format profile                   : Simple@L3
Format settings, BVOP            : 1
Format settings, QPel            : No
Format settings, GMC             : No warppoints
Format settings, Matrix          : Custom
Codec ID                         : XVID
Codec ID/Hint                    : XviD
Duration                         : 1h 56mn
Bit rate                         : 837 Kbps
Width                            : 512 pixels
Height                           : 384 pixels
Display aspect ratio             : 4:3
Frame rate                       : 29.970 fps
Color space                      : YUV
Chroma subsampling               : 4:2:0
Bit depth                        : 8 bits
Scan type                        : Progressive
Compression mode                 : Lossy
Bits/(Pixel*Frame)               : 0.142
Stream size                      : 697 MiB (86%)
Writing library                  : XviD 1.0.1 (UTC 2004-06-05)

Audio
ID                               : 1
Format                           : MPEG Audio
Format version                   : Version 1
Format profile                   : Layer 3
Mode                             : Joint stereo
Codec ID                         : 55
Codec ID/Hint                    : MP3
Duration                         : 1h 56mn
Bit rate mode                    : Constant
Bit rate                         : 128 Kbps
Channel(s)                       : 2 channels
Sampling rate                    : 48.0 KHz
Compression mode                 : Lossy
Stream size                      : 107 MiB (13%)
Alignment                        : Aligned on interleaves
Interleave, duration             : 67 ms (2.00 video frames)
Interleave, preload duration     : 504 ms
Writing library                  : LAME3.98r
Encoding settings                : -m j -V 4 -q 2 -lowpass 17 -b 128

File List
Bagets.avi
Bagets.idx
Bagets.sub
Bagets_Poster.jpg

Comment
Uploaded by another poster some time ago but the torrent seems to be dead.
http://www.asiatorrents.com/index.php?page=torrent-details&id=a2e012846bb0f17cc1083e7d4a35640c97460a30
Created a new torrent for those that are still leeching so they can finally D/L this film.
IMDB
IMDB Extra
More.Info
Category Philippines Movie
Rating
Size 813.71 MB
Show/Hide Files
4 files
AddDate 14/05/2011
Uploader ANONYMOUS
Speed 0 KB/sec
Down 256 times
peers seeds: 0, leechers: 0 = 0 peers
Who thanked
Report
Reseed


09/09/2013 09.18 pm

Reseeding.
09/01/2013 06.53 pm

Pls reseend the torrent guys!  Bin stuck at 5.4% for a few days now!cry.gif
10/07/2011 06.38 am

Sila ang sikat na panlaban sa KPOP ~ hahaha .. smile1.gif
16/06/2011 05.48 am

Thank you so much!
22/05/2011 12.09 pm

thanks much..brings back memories smile1.gif
15/05/2011 06.25 pm

okey ah.. salamat..




ADS