User Info

ADS

Torrent’s details
Name Golden Rainbow E03 HDTV XVID LIMO
  You will need to Register or Login to download!
Info Hash 54d11e39f5161632c50e8bd4c78edb6718ebf140
Description


Details

Title: 황금무지개 / Hwanggeummoojagae
Also known as: The Golden Rainbow
Genre: Family, melodrama, romance
Episodes: TBA
Broadcast network: MBC
Broadcast period: 2013-Nov-02 to 2014-??
Air time: Saturday & Sunday 21:55
Subtitles by Dramafever and VIKI will be added later

Synopsis
It is a story about seven orphans who adopted and raised by a father and grew up together as a family in a town near the ocean. They experience hardships together and have bonds that are even stronger than that of blood-related siblings.

Main Cast
Uee as Kim Baek Won / Jang Ha Bin (3rd child)
Kim Yoo Jung as teen Baek Won
Lee Chae Mi as child Baek Won
Jung Il Woo as Seo Do Young
Oh Jae Moo as teen Do Young
Cha Ye Ryun as Kim Chun Won (2nd child)
Song Yoo Jung as teen Chun Won
Lee Jae Yoon as Kim Man Won (eldest child)
Seo Young Joo as teen Man Won
Jun Joon Hyuk as child Man Won
Kim Sang Jung as Kim Han Joo
Do Ji Won as Yoon Young Hye
Jo Min Ki as Seo Jin Ki
Ahn Nae Sang as Chun Uk Jo
Kim Han Joo's family
Ahn Seo Hyun as Kim Shib Won (4th child)
Jung Yoon Suk as Kim Yeol Won (5th child)
Kim Tae Joon as Kim Il Won (6th child)
Choi Ro Woon as Kim Young Won (7th child)
Seo Jin Ki's family
Park Won Sook as Kang Jung Shim
Ji Soo Won as Jang Mi Rim
Lee Seung Ho as young Seo Tae Young
Chun Uk Jo's family
Kim Hye Eun as Yang Se Ryun
Ryu Dam as Chun Soo Pyo
Kim Dong Hyun as teen Soo Pyo





Code
Video
ID                                       : 0
Format                                   : MPEG-4 Visual
Format profile                           : Advanced Simple@L5
Format settings, BVOP                    : No
Format settings, QPel                    : No
Format settings, GMC                     : No warppoints
Format settings, Matrix                  : Default (MPEG)
Codec ID                                 : XVID
Codec ID/Hint                            : XviD
Duration                                 : 1h 6mn
Bit rate                                 : 1 391 Kbps
Width                                    : 624 pixels
Height                                   : 352 pixels
Display aspect ratio                     : 16:9
Frame rate                               : 29.970 fps
Color space                              : YUV
Chroma subsampling                       : 4:2:0
Bit depth                                : 8 bits
Scan type                                : Progressive
Compression mode                         : Lossy
Bits/(Pixel*Frame)                       : 0.211
Stream size                              : 660 MiB (87%)
Writing library                          : XviD 1.2.1 (UTC 2008-12-04)

Audio
ID                                       : 1
Format                                   : MPEG Audio
Format version                           : Version 1
Format profile                           : Layer 3
Mode                                     : Joint stereo
Mode extension                           : MS Stereo
Codec ID                                 : 55
Codec ID/Hint                            : MP3
Duration                                 : 1h 6mn
Bit rate mode                            : Constant
Bit rate                                 : 128 Kbps
Channel(s)                               : 2 channels
Sampling rate                            : 48.0 KHz
Compression mode                         : Lossy
Stream size                              : 60.8 MiB (8%)
Alignment                                : Aligned on interleaves
Writing library                          : LAME3.98.2

IMDB No IMDB ID been added..
Category Korean TV
Rating
Size 722.80 MB
Show/Hide Files
1 file
AddDate 09/11/2013
Uploader ANONYMOUS
Speed 0 KB/sec
Down 298 times
peers seeds: 2, leechers: 0 = 2 peers
Who thanked
Report
Reseed


13/01/2014 07.59 am

cool2.gifThank you so much
11/12/2013 04.43 am

Thank you so much.grin.gifgrin.gifgrin.gif




ADS