User Info

ADS

Torrent’s details
Name A Moment In Time 2013
  You will need to Register or Login to download!
Info Hash 54cf48e788575abc90da831a93faab7d6fada6ef
Description


Year: 2013
Genre: Drama, Romance
Runtime: 105 min
Country: Philippines
Language: Tagalog
Subtitles: No Subtitles
IMDB: http://www.imdb.com/title/tt2705666/

Plot:
Patrick (Coco Martin) stars as a part-time waiter and self-employed artist. He met Jillian (Julia Montes) on a subway and the two fell in love. Patrick later discovers Jillian's past and has a hard time accepting the truth. He starts to make her suffer by pretending that he really loves her. What will happen when Jillian moves?And what will happen when Patrick comes back to apologize? Find out in this heart - warming drama movie about love, disappointment, and forgiveness.

Director:
Emmanuel Quindo Palo

Cast:
Coco Martin as Patrick Javier
Julia Montes as Jilliana/Jillian Linden
Cherie Gil as Karen Linden / Jillian's Mom
Gabby Concepcion as Steve Linden / Jillian's Dad
Ella Cruz as Mai-mai Javier
Joseph Marco as Mori
Manuel Chua as Bodjie
Joj Agpangan as Chummy
Jai Agpangan as Yummy
Ivan Dorschner as Brix
PJ Endrinal as Christian
Malou Crisologo

Special Participation
Zsa Zsa Padilla as Mirriam Javier

Format                                   : AVI
Format/Info                              : Audio Video Interleave
File size                                : 1.24 GiB
Duration                                 : 1h 37mn
Overall bit rate                         : 1 827 Kbps
Writing application                      : Lavf52.32.0
Writing library                          : Boilsoft AVI tool build 1/release

Video
ID                                       : 0
Format                                   : MPEG-4 Visual
Format profile                           : Simple@L3
Format settings, BVOP                    : No
Format settings, QPel                    : No
Format settings, GMC                     : No warppoints
Format settings, Matrix                  : Default (H.263)
Codec ID                                 : DIVX
Codec ID/Info                            : Project Mayo
Codec ID/Hint                            : DivX 4
Duration                                 : 1h 37mn
Bit rate                                 : 1 622 Kbps
Width                                    : 720 pixels
Height                                   : 392 pixels
Display aspect ratio                     : 16:9
Frame rate                               : 30.000 fps
Color space                              : YUV
Chroma subsampling                       : 4:2:0
Bit depth                                : 8 bits
Scan type                                : Progressive
Compression mode                         : Lossy
Bits/(Pixel*Frame)                       : 0.192
Stream size                              : 1.10 GiB (89%)
Writing library                          : XviD 1.1.2 (UTC 2006-11-01)

Audio
ID                                       : 1
Format                                   : MPEG Audio
Format version                           : Version 1
Format profile                           : Layer 3
Mode                                     : Joint stereo
Mode extension                           : MS Stereo
Codec ID                                 : 55
Codec ID/Hint                            : MP3
Duration                                 : 1h 37mn
Bit rate mode                            : Constant
Bit rate                                 : 192 Kbps
Channel(s)                               : 2 channels
Sampling rate                            : 44.1 KHz
Compression mode                         : Lossy
Stream size                              : 134 MiB (11%)
Alignment                                : Aligned on interleaves
Interleave, duration                     : 26 ms (0.78 video frame)
Interleave, preload duration             : 522 ms


IMDB
IMDB Extra
More.Info
Category Philippines Movie
Rating
Size 1.24 GB
Show/Hide Files
1 file
AddDate 18/03/2013
Uploader ANONYMOUS
Speed 0 KB/sec
Down 773 times
peers seeds: 6, leechers: 0 = 6 peers
Who thanked
Report
Reseed


21/04/2013 09.31 pm

Thank you!!! smile1.gif
05/04/2013 09.53 am

Currently seeding. smile1.gif
01/04/2013 09.02 am

Dear pogita,
     upload mo na friend. laugh.gifwave.gifwave.gifthumbsup.gif
29/03/2013 08.52 am

thanks
23/03/2013 01.03 am

can u upload it pogita? please grin.gif
21/03/2013 04.31 pm

This is a re-encoded version of LaSeR's release...lol!
I have the original copy of this movie.
20/03/2013 01.38 pm

Thanks...will be seeding later..smile1.gifsmile1.gifsmile1.gif
19/03/2013 08.23 pm

thank you for the movie
19/03/2013 08.23 pm

english subs please
19/03/2013 08.13 pm

Seed Please
18/03/2013 07.15 am

[bg-color='yellow'][/bg-color][justified][/justified]




S E E D P L S..angry.gif
18/03/2013 03.39 am

LOLOLOLOL.




ADS