User Info

ADS

Torrent’s details
Name I Summon You, Gold! E17 HDTV XVID KOR
  You will need to Register or Login to download!
Info Hash 54742d9dfc80d7f6312fd439d4c62d7fe88233ce
Description


Details

Title: 금 나와라, 뚝딱! / Geum Nawara, Ddookddak!
Also known as: Gold, Appear! / Let The Gold Come Forth / Gold, Out!
Genre: Family, romance, human
Episodes: 50
Broadcast network: MBC
Broadcast period: 2013-Apr-06 to TBA
Air time: Saturday & Sunday 20:40
Original Soundtrack: I Summon You, Gold! OST
Subtitles by MBC America will be added later

Synopsis

A drama which drily draws the bluff and fact of the middle class which desires the high class. It will talk about the reality of a middle class family and their money problems, as well as love and marriage.
Mong Hee and Yoo Na (both played by Han Ji Hye) are two different woman who look exactly the same. Mong Hee, is street salesperson who is cheerful and hopeful. She dreams of being a jewelry designer. On the other hand, Yoo Na is the daughter of a rich family.
Park Hyun Soo (Yun Jung Hoon) is the CEO of a large jewelry company, owned by his parents while constantly compete with his brother, Park Hyun Joon (Lee Tae Sung), for the CEO position. Park Hyun Soo is going through a divorce from his ex-wife, Yoo Na. He then will meet and fall in love with Mong Hee who looks exactly like his ex-wife.

Main Cast
Han Ji Hye as Jung Mong Hee / Yoo Na
Yun Jung Hoon as Park Hyun Soo
Lee Tae Sung as Park Hyun Joon
Lee Soo Kyung as Sung Eun
Baek Jin Hee as Jung Mong Hyun
Park Seo Joon as Park Hyun Tae
Kim Hyung Joon as Jung Mong Kyu





Code
Video
ID                                       : 0
Format                                   : MPEG-4 Visual
Format profile                           : Advanced Simple@L5
Format settings, BVOP                    : No
Format settings, QPel                    : No
Format settings, GMC                     : No warppoints
Format settings, Matrix                  : Default (MPEG)
Codec ID                                 : XVID
Codec ID/Hint                            : XviD
Duration                                 : 1h 6mn
Bit rate                                 : 1 391 Kbps
Width                                    : 624 pixels
Height                                   : 352 pixels
Display aspect ratio                     : 16:9
Frame rate                               : 29.970 fps
Color space                              : YUV
Chroma subsampling                       : 4:2:0
Bit depth                                : 8 bits
Scan type                                : Progressive
Compression mode                         : Lossy
Bits/(Pixel*Frame)                       : 0.211
Stream size                              : 660 MiB (87%)
Writing library                          : XviD 1.2.1 (UTC 2008-12-04)

Audio
ID                                       : 1
Format                                   : MPEG Audio
Format version                           : Version 1
Format profile                           : Layer 3
Mode                                     : Joint stereo
Mode extension                           : MS Stereo
Codec ID                                 : 55
Codec ID/Hint                            : MP3
Duration                                 : 1h 6mn
Bit rate mode                            : Constant
Bit rate                                 : 128 Kbps
Channel(s)                               : 2 channels
Sampling rate                            : 48.0 KHz
Compression mode                         : Lossy
Stream size                              : 60.8 MiB (8%)
Alignment                                : Aligned on interleaves
Writing library                          : LAME3.98.2
Language                                 : un

IMDB No IMDB ID been added..
Category Korean TV
Rating N/A
Size 754.96 MB
Show/Hide Files
1 file
AddDate 01/06/2013
Uploader ANONYMOUS
Speed 0 KB/sec
Down 175 times
peers seeds: 0, leechers: 0 = 0 peers
Who thanked
Report
Reseed


01/06/2013 02.21 pm

Cool glad the matter has been resolvedthumbsup.gif
01/06/2013 02.07 pm

Yes, finally figured it out. It was the drive. I almost had a heart attack. Thanks. And also for the subs you provide every week.
01/06/2013 02.05 pm

Hi ck1Oz
It sounds like the drive that you're downloading to is no longer there.

https://forum.utorrent.com/viewtopic.php?id=84072

Either you're drive letter changed maybe from C drive to D drive, or maybe you're downloading to an external harddrive and it got unplugged.
01/06/2013 01.45 pm

What does former volume not mounted mean? I can't download the LSS and I summon you, gold episode tonight. Thanks.
01/06/2013 01.39 pm

Thank you for quick upload.

I wish EP15-16 English subtitle out soon.

01/06/2013 01.28 pm

For people waiting on subs from last week's episodes




ADS