User Info

ADS

Torrent’s details
Name The.Concubine.2012.KOR.HDRIP.x264.HEAVEN
  You will need to Register or Login to download!
Info Hash 53d5aede93466efea46afe4e5faf4cd6c5c86b13
Description Warning: Nudity | Sex







http://asianwiki.com/The_Concubine
http://en.wikipedia.org/wiki/The_Concubine_%28film%29
http://www.hancinema.net/korean_movie_The_Concubine.php
http://www.queen2012.co.kr/

Title: The Concubine
Hangul: 후궁: 제왕의 첩
Revised romanization: Hugoong: Jewangui Chub
Director: Kim Dae-seung
Producer: Hwang Yoon-jeong
Writer: Hwang Yoon-jeong, Kim Dae-seung, Kim Mi-jeong
Music: Jo Yeong-wook
Cinematographer: Hwang Ki-seok
Editing: Kim Sang-beom
Genre: Period Drama, Erotica
Distributor: Lotte Entertainment
Release date: 6 June 2012
Running time: 122 min.
Country: South Korea
Language: Korean
Subtitles: English (credit to elee)

Main Cast
   Jo Yeo-jeong ... Shin Hwa-yeon
   Kim Dong-wook ... Prince Seong-won
   Kim Min-joon ... Kwon-yoo
   Park Ji-young ... Dae-bi (Seong-won's mother)
   Jo Eun-ji ... Geum-ok
   Lee Kyung-young ... Chief eunuch
   Park Cheol-min ... Pharmacy eunuch
   Ahn Suk-hwan ... Shin Cham-pan (Hwa-yeon's father)
   Jung Chan ... King
   Oh Hyun-kyung ... vice premier
   Oh Ji-hye ... court lady
   Hong Yeo-jin ... court lady

Synopsis
Living a torturous life of povery and barely able to survive, Hwa-yeon (Jo Yeo-jeong) decides to offer herself as one of the king’s concubines. Once inside the royal palace, two men are immediately seized by the woman - the Grand Prince Seong-won (Kim Dong-wuk), a megalomaniacal ruler drunk with power and lust, and Kwon-yoo (Kim Min-joon), who has everything to lose if his desire for Hwa-yeon is exposed. As political intrigue begins to infiltrate this love triangle, the palace is revealed as hell-like space of passion and obsession from which any of these characters will be lucky to emerge from still alive. ~ hancinema

General
Complete name                  : Queen.2012.KOR.HDRIP.x264.HEAVEN.mp4
Format                         : MPEG-4
Format profile                 : Base Media
Codec ID                       : isom
File size                      : 1.07 GiB
Duration                       : 2h 2mn
Overall bit rate mode          : Variable
Overall bit rate               : 1 257 Kbps
Writing application            : PotEncoder

Video
ID                             : 1
Format                         : MPEG-4 Visual
Format profile                 : Simple@L1
Format settings, BVOP          : No
Format settings, QPel          : No
Format settings, GMC           : No warppoints
Format settings, Matrix        : Default (H.263)
Codec ID                       : 20
Duration                       : 2h 2mn
Bit rate                       : 1 156 Kbps
Width                          : 720 pixels
Height                         : 406 pixels
Display aspect ratio           : 16:9
Frame rate mode                : Constant
Frame rate                     : 24.000 fps
Color space                    : YUV
Chroma subsampling             : 4:2:0
Bit depth                      : 8 bits
Scan type                      : Progressive
Compression mode               : Lossy
Bits/(Pixel*Frame)             : 0.165
Stream size                    : 1 013 MiB (92%)
Writing library                : Lavc52.108.0

Audio
ID                             : 2
Format                         : AAC
Format/Info                    : Advanced Audio Codec
Format profile                 : LC
Codec ID                       : 40
Duration                       : 2h 2mn
Bit rate mode                  : Variable
Bit rate                       : 96.0 Kbps
Channel(s)                     : 2 channels
Channel positions              : Front: L R
Sampling rate                  : 44.1 KHz
Compression mode               : Lossy
Stream size                    : 84.0 MiB (8%)



IMDB
IMDB Extra
More.Info
Category Korean - Erotica/+18
Rating
Size 1.08 GB
Show/Hide Files
5 files
AddDate 27/07/2012
Uploader ANONYMOUS
Speed 0 KB/sec
Down 4970 times
peers seeds: 18, leechers: 2 = 20 peers
Who thanked
Report
Reseed


12/09/2013 08.21 pm

Fantastic upload. Nice movie.
17/06/2013 07.48 am

Wow.. finally
Thank you
03/05/2013 10.28 am

thanks a lot :*
07/02/2013 07.28 pm

Thanks
14/01/2013 12.37 am

great upload, thanks!!
23/11/2012 06.35 pm

Great upload !
22/11/2012 08.06 am

thank you!!!grin.gif
19/11/2012 07.08 am


Thank you!!!grin.gif
14/11/2012 01.58 am

Thanks a lot, nice job!
01/11/2012 09.53 pm

Thankyou grin.gifgrin.gif
05/10/2012 09.40 am

Thank you so much.
27/09/2012 05.28 am

Thanks so much, subs and video were excellent, great film.
14/09/2012 02.25 pm

thanks for your hard work
10/09/2012 08.02 pm

subs finally ! ..  now i can watch it ^^   thanks smile1.gif
10/09/2012 12.10 pm

dang I forgot about this lol ..thx glad to see we finally got subs smile1.gif
27/08/2012 08.01 am

wow! thanks for the subtitles! angel.gif
24/08/2012 06.15 pm

smile1.gifsmile1.gifsmile1.gifsmile1.gifsmile1.gifsmile1.gifsmile1.gifsmile1.gifsmile1.gifsmile1.gifsmile1.gif
19/08/2012 06.39 pm

subtitles please! cry.gif
05/08/2012 01.34 pm

Looks good, but I'll wait for the subs. Thanks. smile1.gif
01/08/2012 04.05 pm

I wasn't interested in this movie until I heard it's actually pretty good and not that erotic lol Then again, maybe that's a bad thing for other people...
01/08/2012 01.50 am

yup, subs would be great
29/07/2012 12.55 pm

erotic sex scene ... need sub, will watch complete movie later.
28/07/2012 06.27 pm

im european and she look bloody hot... angel.gif
28/07/2012 01.38 pm

If you want to download only because of +18, No need...tongue.gif
28/07/2012 03.53 am

thank you  ..  smile1.gif thumbsup.gif
28/07/2012 12.34 am

subs please! smile1.gif
27/07/2012 04.31 pm

waiting for the sub>>>>>> thanks




ADS