User Info

ADS

Torrent’s details
Name [MV] Seo In Guk & Jung Eunji - All For You (Answer to 1997 OST)
  You will need to Register or Login to download!
Info Hash 4e5658301180b3aa70efc24063ae0a29de340a75
Description



Seo In Guk & Jung Eunji - All For You
From Answer to 1997 OST Part 1





Code
Video
ID                                       : 1
Format                                   : AVC
Format/Info                              : Advanced Video Codec
Format profile                           : High@L4.0
Format settings, CABAC                   : Yes
Format settings, ReFrames                : 1 frame
Codec ID                                 : avc1
Codec ID/Info                            : Advanced Video Coding
Duration                                 : 4mn 9s
Bit rate                                 : 4 634 Kbps
Maximum bit rate                         : 7 795 Kbps
Width                                    : 1 920 pixels
Height                                   : 1 080 pixels
Display aspect ratio                     : 16:9
Frame rate mode                          : Constant
Frame rate                               : 24.000 fps
Color space                              : YUV
Chroma subsampling                       : 4:2:0
Bit depth                                : 8 bits
Scan type                                : Progressive
Bits/(Pixel*Frame)                       : 0.093
Stream size                              : 138 MiB
Tagged date                              : UTC 2012-08-27 05:04:25

Audio
ID                                       : 2
Format                                   : AAC
Format/Info                              : Advanced Audio Codec
Format profile                           : LC
Codec ID                                 : 40
Duration                                 : 4mn 9s
Bit rate mode                            : Variable
Bit rate                                 : 192 Kbps
Maximum bit rate                         : 203 Kbps
Channel(s)                               : 2 channels
Channel positions                        : Front: L R
Sampling rate                            : 44.1 KHz
Compression mode                         : Lossy
Stream size                              : 5.72 MiB (20%)
Title                                    : IsoMedia File Produced by Google, 5-11-2011
Encoded date                             : UTC 2012-08-27 05:04:25
Tagged date                              : UTC 2012-08-27 05:04:25

IMDB No IMDB ID been added..
Category Korean Music
Rating N/A
Size 143.83 MB
Show/Hide Files
1 file
AddDate 31/08/2012
Uploader ANONYMOUS
Speed 0 KB/sec
Down 120 times
peers seeds: 0, leechers: 0 = 0 peers
Who thanked
Report
Reseed


No comments...




ADS