User Info

ADS

Torrent’s details
Name Running Man E136 HDTV 1080p AyoEunji
  You will need to Register or Login to download!
Info Hash 487cc5a2fcfe49742ee242f9516a5e681d985c9f
Description


Plot/Synopsis:
Running Man (Korean: 런닝맨) is a South Korean variety show; a part of SBS's Good Sunday lineup, along with K-pop Star (K팝 스타). It was first aired on July 11, 2010. This show is classified as an "urban action variety"; a never-before-seen new genre of variety shows. The MCs and guests complete missions in a landmark to win the race. It has garnered attention as being the come-back program for Yu Jae-suk, the main MC of the program, after leaving Good Sunday's Family Outing in February 2010.

Guests: Han Hye-jin, Lee Dong-wook

Subtitles by Dramafever






Code

Format                                   : Matroska
Format version                           : Version 4 / Version 2
File size                                : 3.80 GiB
Duration                                 : 1h 24mn
Overall bit rate                         : 6 386 Kbps
Encoded date                             : UTC 2013-03-11 07:36:01
Writing application                      : mkvmerge v6.1.0 ('Old Devil') built on Mar  2 2013 14:32:37
Writing library                          : libebml v1.3.0 + libmatroska v1.4.0

Video
ID                                       : 1
Format                                   : AVC
Format/Info                              : Advanced Video Codec
Format profile                           : High@L4.1
Format settings, CABAC                   : Yes
Format settings, ReFrames                : 4 frames
Codec ID                                 : V_MPEG4/ISO/AVC
Duration                                 : 1h 24mn
Bit rate                                 : 6 000 Kbps
Width                                    : 1 920 pixels
Height                                   : 1 080 pixels
Display aspect ratio                     : 16:9
Frame rate mode                          : Constant
Frame rate                               : 29.970 fps
Color space                              : YUV
Chroma subsampling                       : 4:2:0
Bit depth                                : 8 bits
Scan type                                : Progressive
Bits/(Pixel*Frame)                       : 0.097
Stream size                              : 3.49 GiB (92%)
Title                                    : 런닝맨 E136 1080p-AyoEunji
Writing library                          : x264 core 130 r2273 b3065e6
Encoding settings                        : cabac=1 / ref=4 / deblock=1:-1:-1 / analyse=0x3:0x133 / me=umh / subme=9 / psy=1 / psy_rd=1.00:0.15 / mixed_ref=1 / me_range=16 / chroma_me=1 / trellis=2 / 8x8dct=1 / cqm=0 / deadzone=21,11 / fast_pskip=1 / chroma_qp_offset=-3 / threads=12 / lookahead_threads=1 / sliced_threads=0 / nr=0 / decimate=1 / interlaced=0 / bluray_compat=0 / constrained_intra=0 / bframes=3 / b_pyramid=2 / b_adapt=2 / b_bias=0 / direct=3 / weightb=1 / open_gop=0 / weightp=2 / keyint=300 / keyint_min=29 / scenecut=40 / intra_refresh=0 / rc_lookahead=60 / rc=2pass / mbtree=1 / bitrate=6000 / ratetol=1.0 / qcomp=0.60 / qpmin=0 / qpmax=69 / qpstep=4 / cplxblur=20.0 / qblur=0.5 / ip_ratio=1.40 / aq=1:1.00
Language                                 : Korean
Default                                  : Yes
Forced                                   : No

Audio
ID                                       : 2
Format                                   : AC-3
Format/Info                              : Audio Coding 3
Mode extension                           : CM (complete main)
Format settings, Endianness              : Big
Codec ID                                 : A_AC3
Duration                                 : 1h 24mn
Bit rate mode                            : Constant
Bit rate                                 : 384 Kbps
Channel(s)                               : 2 channels
Channel positions                        : Front: L R
Sampling rate                            : 48.0 KHz
Bit depth                                : 16 bits
Compression mode                         : Lossy
Stream size                              : 232 MiB (6%)
Language                                 : Korean
Default                                  : Yes
Forced                                   : No


IMDB No IMDB ID been added..
Category Korean TV 720p-1080p
Rating
Size 3.80 GB
Show/Hide Files
1 file
AddDate 25/03/2013
Uploader ANONYMOUS
Speed 0 KB/sec
Down 85 times
peers seeds: 1, leechers: 1 = 2 peers
Who thanked
Report
Reseed


25/10/2013 10.04 am

I have downloaded this file ..
If someday , there are no seeders , just PM me , n i will move this file to my PC and seed it ..
Thank you , but my upload speed is really bad ..
08/10/2013 12.29 am

Need seeder ,
if some one have this file , i hope u can reseed it ..
Thank you very much
God Bless You
25/03/2013 05.38 pm

WUT?! 1080p! Kamsahamnida tongue.gif
25/03/2013 05.16 pm

AYO EUNJI~
bounce.gifbounce.gifbounce.gifbounce.gifbounce.gifbounce.gif




ADS