User Info

ADS

Torrent’s details
Name Dirty Blood.2012.KOR.HDRip.x264.AC3-ADiOS (PG-15)
  You will need to Register or Login to download!
Info Hash 47641c1126614517f55978f51894831a9117cd9b
Description WARNING: Strong adult language, some nudity and sex scenes



Title: Dirty Blood
Hangul: 나쁜 피 (nah-beun pi)
Director / screenwriter:  Kang Hyo-jin (강효진)
Genre: Crime
Release date: 01 November 2012
Runtime: 130mins
Country: South Korea
Language: Korean
Subtitles: None ATM

Starring:
Yoon Joo (윤주) As In-seon (인선)
Lim Dae-il (임대일) As Bang-joon (방준)
Seol Ji-yoon (설지윤)
Yoo Yeong-chae (유영채)


Synopsis:
"Your Filthy Blood Runs Through Me"
In-seon is about to leave to Spain as a foreign exchange student when she hears shocking news from her terminally-ill mother. Her father she thought dead, was alive and she was born when he raped her mother. While she had inner conflicts about her existence, she decides to find him and kill him. She disguises herself as his previous wife's relative and starts living with him and In-seon's actions of revenge gradually collapses... --HanCinema







Code
Video
ID                                       : 1
Format                                   : AVC
Format/Info                              : Advanced Video Codec
Format profile                           : Baseline@L3.0
Format settings, CABAC                   : No
Format settings, ReFrames                : 1 frame
Muxing mode                              : Header stripping
Codec ID                                 : V_MPEG4/ISO/AVC
Duration                                 : 2h 12mn
Bit rate                                 : 1 370 Kbps
Width                                    : 800 pixels
Height                                   : 408 pixels
Display aspect ratio                     : 1.961
Frame rate mode                          : Constant
Frame rate                               : 29.970 fps
Color space                              : YUV
Chroma subsampling                       : 4:2:0
Bit depth                                : 8 bits
Scan type                                : Progressive
Bits/(Pixel*Frame)                       : 0.140
Stream size                              : 1.24 GiB (86%)
Writing library                          : x264 core 125
Encoding settings                        : cabac=0 / ref=1 / deblock=1:0:0 / analyse=0x1:0x1 / me=dia / subme=1 / psy=1 / psy_rd=1.00:0.00 / mixed_ref=0 / me_range=16 / chroma_me=1 / trellis=0 / 8x8dct=0 / cqm=0 / deadzone=21,11 / fast_pskip=1 / chroma_qp_offset=0 / threads=3 / lookahead_threads=1 / sliced_threads=0 / nr=0 / decimate=1 / interlaced=0 / bluray_compat=0 / constrained_intra=0 / bframes=0 / weightp=0 / keyint=250 / keyint_min=25 / scenecut=40 / intra_refresh=0 / rc=abr / mbtree=0 / bitrate=1370 / ratetol=1.0 / qcomp=0.60 / qpmin=0 / qpmax=69 / qpstep=4 / ip_ratio=1.40 / aq=1:1.00
Default                                  : Yes
Forced                                   : No

Audio
ID                                       : 2
Format                                   : AC-3
Format/Info                              : Audio Coding 3
Mode extension                           : CM (complete main)
Format settings, Endianness              : Big
Muxing mode                              : Header stripping
Codec ID                                 : A_AC3
Duration                                 : 2h 12mn
Bit rate mode                            : Constant
Bit rate                                 : 192 Kbps
Channel(s)                               : 2 channels
Channel positions                        : Front: L R
Sampling rate                            : 48.0 KHz
Bit depth                                : 16 bits
Compression mode                         : Lossy
Delay relative to video                  : 23ms
Stream size                              : 182 MiB (12%)
Default                                  : Yes
Forced                                   : No

IMDB No IMDB ID been added..
Category Korean Movie
Rating
Size 1.45 GB
Show/Hide Files
1 file
AddDate 16/11/2012
Uploader ANONYMOUS
Speed 0 KB/sec
Down 597 times
peers seeds: 4, leechers: 0 = 4 peers
Who thanked
Report
Reseed


28/04/2013 12.58 pm

OMG me too, I have a bunch of movies downloaded and no subs, this is sad sad.gif some of them might never have subs.
07/01/2013 08.40 pm

same here,I wait on 8 movies to get eng sub smile1.gif
04/01/2013 07.20 am

so many many good movies.. so little english subs.. sad.gif
30/12/2012 05.45 pm

anyone have english subs for this. thanks!
16/11/2012 08.45 am

thank you..smile1.gif




ADS