User Info

ADS

Torrent’s details
Name Sunny Happiness HDTV X264 720p (2011)-KizunaFS
  You will need to Register or Login to download!
Info Hash 4521fdba1d66f840471de3b01a9ab5ee9beb0720
Description

http://wiki.d-addicts.com/Sunny_Happiness

Have seen many dramas form various countries. This one is my personal favourite taiwanese/china drama. Acting is good, plot isn't original, but also in it's own way mesmerises . I guarantee you will have a good time. Also, you have to agree, main actress is really attractivesmile1.gif

INFO
   Title: 幸福最晴天
   English title: Sunny Happiness
   Also known as: Happiness is like a Sunny Day / The Sunniest Day of Happiness / Sunshine Day
   Genre: Romance, comedy
   Episodes: 25
   Broadcast network: Anhui TV / CTV
   Broadcast period: 2011

   Subtitle: english softsubs by kizunafansubs E01-11, E12-25 RAW (kizuna is still subbing).

SYNOPSIS
Xiang Yun Jie (Mike He) is rich man who was once divorced, and unknowingly had an eight year old son. He is also a young owner of a hotel. Fang Yong Yong (Janine Chang) is an orphan. She works as a housekeeper in the hotle that Xiang Yun Jie owns. The two of them started their fairytale like love story from a 'fake marriage'. Xiang Yun Jie's brother, Xiang Yun Chao (Li Yi Feng), is always hiding in the shadow, he is also the one who completes the love triangle.

CAST
Mike He as Xiang Yun Jie
Janine Chang as Fang Yong Yong
Li Yi Feng as Xiang Yun Chao
Zhou Zi Han (周子涵) as Wang Lan
Li Jin Ming (李今銘) as Kong Xin Jie
Li Zhi Nan as Huang Si Han

SCREENS




MEDIA

Code
General
Format                         : Matroska
Format version                 : Version 2
File size                      : 1.14 GiB
Duration                       : 36mn 22s
Overall bit rate               : 4 498 Kbps
Encoded date                   : UTC 2011-08-16 17:24:12
Writing application            : mkvmerge v3.0.0 ('Hang up your Hang-Ups') built on Dec 12 2009 15:20:35
Writing library                : libebml v0.7.9 + libmatroska v0.8.1
Video
ID                             : 1
Format                         : AVC
Format/Info                    : Advanced Video Codec
Format profile                 : High@L4.1
Format settings, CABAC         : Yes
Format settings, ReFrames      : 7 frames
Codec ID                       : V_MPEG4/ISO/AVC
Duration                       : 36mn 22s
Bit rate                       : 4 112 Kbps
Width                          : 1 280 pixels
Height                         : 720 pixels
Display aspect ratio           : 16:9
Frame rate                     : 25.000 fps
Color space                    : YUV
Chroma subsampling             : 4:2:0
Bit depth                      : 8 bits
Scan type                      : Progressive
Bits/(Pixel*Frame)             : 0.178
Stream size                    : 1.02 GiB (89%)
Writing library                : x264 core 68 r1183M f21daff
Audio
ID                             : 2
Format                         : MPEG Audio
Format version                 : Version 1
Format profile                 : Layer 2
Codec ID                       : A_MPEG/L2
Codec ID/Hint                  : MP2
Duration                       : 36mn 22s
Bit rate mode                  : Constant
Bit rate                       : 384 Kbps
Channel(s)                     : 2 channels
Sampling rate                  : 48.0 KHz
Compression mode               : Lossy
Delay relative to video        : 24ms
Stream size                    : 99.9 MiB (9%)


TRAILER

IMDB No IMDB ID been added..
Category Chinese TV 720p-1090p
Rating
Size 30.84 GB
Show/Hide Files
34 files
AddDate 23/02/2012
Uploader ANONYMOUS
Speed 84.82 KB/sec
Down 478 times
peers seeds: 7, leechers: 3 = 10 peers
Who thanked
Report
Reseed


16/08/2013 12.09 pm

How long ep18 you have?
Because i have it just 30 min, and the follow ep 19 don't complete it.
also the sub file have 1 hour not 30 min.
So, it's seem there is about above 30 min missing!ohmy.gif
I'am the only one?
29/07/2013 09.14 pm

thx for the eng srt.
16/06/2013 02.06 am

thank you so muchsmile1.gif
06/05/2013 10.38 pm

thank you so much
06/05/2013 10.33 pm

thank you so much smile1.gif
15/04/2013 09.38 pm

Thank you smile1.gif
10/04/2013 02.45 am

My apologies! I added softsubs but forgot to specify that they are for episodes 12 & 13 only!  I took the Viki subs provided by Zenith and I am retiming episodes 12-25 to fit these raws.  I have finished 12 and 13 and will upload the rest as I complete them.

Sorry for any confusion!
06/04/2013 08.12 pm

thanx for your hard work I will enjoy it ^_^
24/02/2013 03.50 am

This seems to be missing scenes?  Noticed ep 19 doesn't continue where 18 left off.
20/12/2012 06.42 am

I think that kizuna group are trying... but they are ppl with personal lives too so I don't get why!!! they take so many projects and finish no one !!! Personally I am still waiting for the subs to "Because of You".......(sight).
11/11/2012 09.16 pm

Thank you mcdat for sub !
04/11/2012 07.17 pm

thank you fast download love it.
27/09/2012 03.46 pm

Soft Subs for all episodes are at
http://zenithsubs.wordpress.com/2011/05/25/twdrama-sunny-happiness-softsubs/
BUT
They are not synced to the 720p, they seem to be set for files that have the starting sequence, so the subs start late. If your player lets you hasten the subs, you can get them to line up with the audio at the start.
08/08/2012 03.56 pm

is the subtitle not finish yet?
if its done please upload or let me know at where i can get it
Thanks
02/07/2012 09.38 am

thanks so much grin.gif I hope Kizuna will finish the subs soon grin.gif
12/04/2012 04.32 pm

umm, I have a real quick question, I downloaded this it only has subs for the first 11 episodes. Is there anywhere I can download the rest so I can finish this drama? All I need are the .srt files for 12-25.
17/03/2012 03.18 pm

thank you so much i was waiting for this drama a long timegrin.gif




ADS