User Info

ADS

Torrent’s details
Name Running Man E124 HDTV XVID KOR
  You will need to Register or Login to download!
Info Hash 41eb6f525bd7fd093cce61d4b3c09e39c8dc576f
Description


Plot/Synopsis:
Running Man (Korean: 런닝맨) is a South Korean variety show; a part of SBS's Good Sunday lineup, along with K-pop Star (K팝 스타). It was first aired on July 11, 2010. This show is classified as an "urban action variety"; a never-before-seen new genre of variety shows. The MCs and guests complete missions in a landmark to win the race. It has garnered attention as being the come-back program for Yu Jae-suk, the main MC of the program, after leaving Good Sunday's Family Outing in February 2010.

Subtitles by Dramafever will be added later.
There will be a 24hr delay for each person that annoys me for subtitles.





Code
Video
ID                                       : 0
Format                                   : MPEG-4 Visual
Format profile                           : Advanced Simple@L5
Format settings, BVOP                    : No
Format settings, QPel                    : No
Format settings, GMC                     : No warppoints
Format settings, Matrix                  : Default (MPEG)
Codec ID                                 : XVID
Codec ID/Hint                            : XviD
Duration                                 : 1h 29mn
Bit rate                                 : 1 388 Kbps
Width                                    : 624 pixels
Height                                   : 352 pixels
Display aspect ratio                     : 16:9
Frame rate                               : 29.970 fps
Color space                              : YUV
Chroma subsampling                       : 4:2:0
Bit depth                                : 8 bits
Scan type                                : Progressive
Compression mode                         : Lossy
Bits/(Pixel*Frame)                       : 0.211
Stream size                              : 886 MiB (87%)
Writing library                          : XviD 1.2.1 (UTC 2008-12-04)

Audio
ID                                       : 1
Format                                   : MPEG Audio
Format version                           : Version 1
Format profile                           : Layer 3
Mode                                     : Joint stereo
Mode extension                           : MS Stereo
Codec ID                                 : 55
Codec ID/Hint                            : MP3
Duration                                 : 1h 29mn
Bit rate mode                            : Constant
Bit rate                                 : 128 Kbps
Channel(s)                               : 2 channels
Sampling rate                            : 48.0 KHz
Compression mode                         : Lossy
Stream size                              : 81.7 MiB (8%)
Alignment                                : Aligned on interleaves
Writing library                          : LAME3.98.2
Language                                 : un

IMDB No IMDB ID been added..
Category Korean TV
Rating
Size 1.06 GB
Show/Hide Files
1 file
AddDate 16/12/2012
Uploader ANONYMOUS
Speed 0 KB/sec
Down 932 times
peers seeds: 4, leechers: 0 = 4 peers
Who thanked
Report
Reseed


23/12/2012 04.13 pm

감사합니다 grin.gifgrin.gifgrin.gifgrin.gif
19/12/2012 04.24 am

Thank you very much! smile1.gif
17/12/2012 02.39 pm

THANK YOU!!!
[bg-color='black'][/bg-color][color='lime'][/color][size='x-large'][/size]
16/12/2012 02.44 pm

THANK YOU beer1.gif




ADS