User Info

ADS

Torrent’s details
Name Pinoy Kamasutra 2 ( Erotic,CAT III )
  You will need to Register or Login to download!
Info Hash 3e530a4e201b332360102c2aa3b3c19c0bfc22c8
Description Warning : This movie contains strong sexual content.Not suitable for viewers under Age 18..


Title            : Pinoy Kamasutra 2
Director      : Bod Roque
Country      : Philipines
Language    :Tagalog, English
Genre         : Adult, Erotic
Cast           : Myles Hernandes, Hazel Cabrera

Subtitles     : NO ENGLISH SUBS

DESCRIPTION
A woman wanting to feel alive… secure… and feel pleasure again rediscovers heated passion beyond one's wildest imagination… Exciting. Electrifying. Erotic.

Myles is a woman in need of sexual healing until she comes across an erotic email sent to her. Echo is a sexually active email sender in search of the ultimate amorous encounter. While in hot pursuit to unravel the identity of her erotic e-mate, she's also bound to discover her hidden carnal creature- her sexual alter ego.

As the two become constant chat mates. Myles hunger for passion is finally reawakened. Aided by the four fundamental elements: fire, water, earth and air, the two explore each others lustful cravings far beyond their wildest imagination.

Too bold to behold, Pinoy Kamasutra 2 is packed with lusty, steamy segments and erotic positions, and shows you how the Internet has truly become one vital tool for sexual pleasure.

Pinoy Kamasutra 2. It's one hot lesson plan you shouldn't miss.



Format                           : DivX
Format/Info                      : Hack of AVI
File size                        : 345 MiB
Duration                         : 45mn 16s
Overall bit rate                 : 1 066 Kbps

Video
ID                               : 0
Format                           : MPEG-4 Visual
Format settings, BVOP            : Yes
Format settings, QPel            : No
Format settings, GMC             : No warppoints
Format settings, Matrix          : Default (H.263)
Muxing mode                      : Packed bitstream
Codec ID                         : DX50
Codec ID/Hint                    : DivX 5
Duration                         : 45mn 16s
Bit rate                         : 927 Kbps
Width                            : 720 pixels
Height                           : 480 pixels
Display aspect ratio             : 3:2
Frame rate                       : 29.970 fps
Standard                         : NTSC
Color space                      : YUV
Chroma subsampling               : 4:2:0
Bit depth                        : 8 bits
Scan type                        : Progressive
Bits/(Pixel*Frame)               : 0.089
Stream size                      : 300 MiB (87%)
Title                            : Video
Writing library                  : DivX 6.2.5 (UTC 2006-06-16)

Audio
ID                               : 1
Format                           : MPEG Audio
Format version                   : Version 1
Format profile                   : Layer 3
Codec ID                         : 55
Codec ID/Hint                    : MP3
Duration                         : 45mn 16s
Bit rate mode                    : Constant
Bit rate                         : 128 Kbps
Channel(s)                       : 2 channels
Sampling rate                    : 48.0 KHz
Stream size                      : 41.5 MiB (12%)
Alignment                        : Split accross interleaves
Interleave, duration             : 33 ms (1.00 video frame)
Interleave, preload duration     : 50 ms

Enjoy and continue seeding.Thankz thumbsup.gif
IMDB
IMDB Extra
More.Info
Category Philippines - Erotic/+18
Rating
Size 345.40 MB
Show/Hide Files
1 file
AddDate 25/06/2010
Uploader ANONYMOUS
Speed 0 KB/sec
Down 7699 times
peers seeds: 7, leechers: 1 = 8 peers
Who thanked
Report
Reseed


16/08/2014 01.40 pm

Thanks!
12/12/2013 01.48 am

Censored soft core.
The models are above average at least.
If you're 13 years old you might get a woody otherwise don't bother.
21/09/2013 07.38 pm

good
16/08/2012 08.31 am

this is so great movie smile2.gif
09/06/2012 06.06 am

Thanks for uploading! Really nice movie!
13/01/2012 09.38 am

Nice share ... Thanks
04/07/2011 03.59 am

thank for post.... so cooltongue.gif
21/05/2011 01.26 pm

THANKS GUYS HAVE A WONDERFUL SITE KEEP IT 21 050 2010
28/04/2011 03.49 pm

thank you!
01/03/2011 12.27 am

thank you
02/12/2010 06.59 pm

artists less so interesting ..
but need to try to watch? maybe the sensation to win ..
thank you for this movie Uploader
18/11/2010 02.13 am

Hot chicks. I love it. Love the ending scenes. So hot

V-6
A-7
20/07/2010 10.04 am

shokran! grin.gif
03/07/2010 12.58 pm

Thank You So Much!   Damn, This Made Me So Erotic!  Salamat Sa Nag Upload ( Thanks To The Person Who Uploaded The Movie )  angel.gif

01/07/2010 11.22 am

Thank frince,thumbsup.gif I like all your upload movie
28/06/2010 06.56 am

only thanks you. Nice Film
26/06/2010 08.27 am

Need to go buy me some lotion tongue.gif
25/06/2010 03.51 pm

Nice!Thanksthumbsup.gif




ADS