User Info

ADS

Torrent’s details
Name Super Trio Maximus E03 (2013) TVRip [Cantonese]
  You will need to Register or Login to download!
Info Hash 3db83f3a12fb4d8a81a9446e590387f4c27a9d37
Description


Hosts: Elvina Kong (江欣燕), Louis Yuen (阮兆祥), Kum Kong (金剛), Eric Tsang (曾志偉), Chin Ka-lok (錢嘉樂), Jordon Chan (陳小春),Jerry Lam (林曉峰), 蘭茜, Wong Cho Lam (王祖藍), 王志安
Genre: TVB Variety Game Show
Also Known As: 超級無敵獎門人 終極篇
Country: Hong Kong
Duration: 45 mins
Language: Cantonese
Subtitles: Chinese / No English Subs

Release Date: 2013.06-03 (Episode 03)

Synopsis:
The Super Trio Series is a Hong Kong variety show produced by TVB. The series debuted in 1995, and remained in production for ten years due to its popularity. May 26, 2013 is the newest 11th Season of the Super Trio Series.

GUIDE (Location and Guests)

Code
Episode 01: Fukuoka, Japan - Guests: Samantha Ko (高海寧), Koni Lui (呂慧), Timmy Hung (洪天明),
Michael Tse (謝天華), Charmaine Fong (方皓玟), Toby Leung (梁靖琪), Mandy Lieu

Episode 02: Studio - Nancy Sit (薛家燕), Michael Tse (謝天華), Andrew Lam (林敏聰), Pang Dan (彭丹), Natalie Meng (孟瑤), Johnny Tang (鄧兆尊), Carlo Ng (吳家樂), Timmy Hung (洪天明), Janet Chow (周家蔚)

Episode 03: Chrissie Chau (周秀娜), Kitty Yuen (阮小儀), Louis Cheung (張繼聰), Oscar Leung (梁烈唯), Lawrence Ng (吳啟華), Alice Chan (陳煒)

Episode 04: Michael Miu (苗僑偉), Bosco Wong (黃宗澤), Niki Chow (周麗淇), Mandy Wong (黃智雯), Vincent Wong (王浩信), Eric Chung (鍾志光), Elaine Yiu (姚子羚), Rachel Poon (潘曉彤)

Episode 05: Dodo Cheng (鄭裕玲), Jamie Chik (戚美珍), Tavia Yeung (楊怡), Tracy Ip (葉翠翠), Alex Fong (方力申), Him Law (羅仲謙). Sunny Chan (陳錦鴻), Terence SiuFay (小肥)




Code
General
File size                                : 489 MiB
Duration                                 : 45mn 22s
Overall bit rate                         : 1 486 Kbps

Video
ID                                       : 1
Format                                   : RealVideo 4
Codec ID                                 : RV40
Codec ID/Info                            : Based on AVC (H.264), Real Player 9
Duration                                 : 45mn 22s
Bit rate                                 : 1 358 Kbps
Width                                    : 720 pixels
Height                                   : 408 pixels
Display aspect ratio                     : 16:9
Frame rate                               : 25.000 fps
Bits/(Pixel*Frame)                       : 0.185
Stream size                              : 441 MiB (90%)

Audio
ID                                       : 0
Format                                   : AAC
Format/Info                              : Advanced Audio Codec
Format profile                           : LC
Codec ID                                 : raac
Codec ID/Info                            : Real Player 9
Duration                                 : 45mn 22s
Bit rate                                 : 128 Kbps
Channel(s)                               : 2 channels
Sampling rate                            : 44.1 KHz
Bit depth                                : 16 bits
Compression mode                         : Lossy
Stream size                              : 41.5 MiB (8%)




IMDB No IMDB ID been added..
Category Hong Kong TV
Rating N/A
Size 401.39 MB
Show/Hide Files
1 file
AddDate 09/06/2013
Uploader ANONYMOUS
Speed 0 KB/sec
Down 341 times
peers seeds: 3, leechers: 0 = 3 peers
Who thanked
Report
Reseed


16/06/2013 03.21 pm

Highly enjoyable like before wink.gif

Please keep them coming angel.gif




ADS