User Info

ADS

Torrent’s details
Name Take Care of the Young Lady/My Fair Lady (2009) Complete (hardsubbed)
  You will need to Register or Login to download!
Info Hash 3ce441d3fbe3b9758ac82ce78111f3a003f7874e
Description


http://wiki.d-addicts.com/Take_Care_of_the_Young_Lady
http://asianmediawiki.com/My_Fair_Lady_(2009-South_Korea-KBS2)
http://www.hancinema.net/korean_drama_My_Fair_Lady.php

Title: 아가씨를 부탁해 / Agassireul Pputakae
Also known as: Take Care of Agassi / Take Care of My Lady / My Fair Lady
Previously known as: 레이디 캐슬 / Lady Castle
Genre: Romance, comedy
Episodes: 16
Broadcast Network: KBS2
Broadcast period: 2009-Aug-19 to 2009-Oct-08
Air time: Wednesday & Thursday 21:55
Language: Korean
Country: South Korea
Subtitles: English (hardsubbed)

Production Credits
Screenwriter: Kim Eun Hee, Yoon Eun Kyung
Production company: LeeKim Production
Senior producer: Han Joon Seo
Producer: Lee So Yeon
Director: Ji Young Soo

Main Cast
Yoon Eun Hye as Kang Hye Na (24)
Yoon Sang Hyun as Seo Dong Chan (32)
Jung Il Woo as Lee Tae Yoon (27)
Moon Chae Won as Yeo Eui Joo (24)
Lee Jung Gil as President Kang / Kang Man Ho (Hye Na's grandfather)
Kim Myung Gook as Director Kang / Kang Chul Goo (57, Soo Ah's father)
Yoon Ye Hee as Jo Mi Ok (50, Soo Ah & Soo Min's mother)
Jang Ah Young as Kang Soo Ah (25)
Wang Suk Hyun as Kang Soo Min (7, Hye Na's cousin)
Kim Seung Wook as Manager Jang / Jang Geun Soo (56)
Park Hyun Sook as Maid Jang / Jang Min Hwa (45)
Kim Young Kwang as Jung Woo Sung (28)

Recognitions
2009 KBS Drama Awards: Best Couple Award (Yoon Eun Hye and Yoon Sang Hyun)
2009 KBS Drama Awards: Popularity Award (Yoon Eun Hye)
2009 KBS Drama Awards: Popularity Award (Yoon Sang Hyun)



Synopsis
"My Fair Lady" centers around Hye-na Kang (Yoon Eun-Hye), an heiress to the Kang-san Group and owner of the palace known as "Lady Castle." She lives with her servants as her parents died in a plane accident and her grandfather raised her as a child. Then on day, a young scamp named Dong-chan (Yun Sang-Hyeon) becomes a butler at "Lady Castle" in an attempt to gain Hye-na's money and heart. Things become even more complicated as rich lawyer Tae-yun (Jeong Il-Woo) steps in-between them...

General
Complete name                    : Take Care Of Agasshi - 01.mp4
Format                           : MPEG-4
Format profile                   : Base Media
Codec ID                         : isom
File size                        : 202 MiB
Duration                         : 1h 2mn
Overall bit rate                 : 451 Kbps

Video
ID                               : 1
Format                           : AVC
Format/Info                      : Advanced Video Codec
Format profile                   : High@L3.0
Format settings, CABAC           : Yes
Format settings, ReFrames        : 8 frames
Codec ID                         : avc1
Codec ID/Info                    : Advanced Video Coding
Duration                         : 1h 2mn
Bit rate mode                    : Variable
Bit rate                         : 400 Kbps
Maximum bit rate                 : 1 180 Kbps
Width                            : 640 pixels
Height                           : 352 pixels
Display aspect ratio             : 16:9
Frame rate mode                  : Constant
Frame rate                       : 29.970 fps
Color space                      : YUV
Chroma subsampling               : 4:2:0
Bit depth                        : 8 bits
Scan type                        : Progressive
Bits/(Pixel*Frame)               : 0.059
Stream size                      : 179 MiB (89%)
Title                            : Video
Writing library                  : x264 core 104 r1683 62997d6

Audio
ID                               : 2
Format                           : AAC
Format/Info                      : Advanced Audio Codec
Format version                   : Version 4
Format profile                   : LC
Format settings, SBR             : Yes
Format settings, PS              : No
Codec ID                         : 40
Duration                         : 1h 2mn
Bit rate mode                    : Variable
Bit rate                         : 48.0 Kbps
Maximum bit rate                 : 56.1 Kbps
Channel(s)                       : 2 channels
Channel positions                : Front: L R
Sampling rate                    : 48.0 KHz
Stream size                      : 21.5 MiB (11%)




IMDB
IMDB Extra
More.Info
Category Korean TV
Rating
Size 3.24 GB
Show/Hide Files
18 files
AddDate 28/05/2011
Uploader ANONYMOUS
Speed 84.09 KB/sec
Down 2684 times
peers seeds: 24, leechers: 2 = 26 peers
Who thanked
Report
Reseed


25/03/2014 04.02 pm

i was shocked when i saw Song Joong Ki on the first episode...
and i was like "aaaaaaaahhhhhhhhhhhhh"!!!
so happy grin.gif
my heart thumps grin.gifsmile1.gifgrin.gif
21/01/2014 04.03 pm

thank you
31/10/2013 11.19 am

pls reseed ..i will rate it 7 out of 10 ...tongue.giftongue.giftongue.gif
23/09/2013 03.39 am

I just finished watching this drama. Its decent enough to waste our time on this and of course, Yoon Eun Hye is so beautiful that having her on the screen alone makes everything worth it.   thumbsup.gif
08/07/2013 01.22 pm

thanks!!smile1.gif
24/05/2013 03.02 pm

thanks!smile1.gif
15/03/2013 09.59 am

Bless You smile1.gif
08/03/2013 06.13 am

Nice! Liked it grin.gif
25/02/2013 05.43 pm

thanks that was great
Code
8)

25/02/2013 05.35 pm

thnaks nice drama wow
25/02/2013 05.33 pm

thank you very much for this drama
22/12/2012 11.35 pm

Very beautiful and touching. Thanks!
22/11/2012 12.05 pm

Would appreciate it very much if someone could please seed.
Thank you.
17/08/2012 04.44 pm

loved this...just finished watching it now....thanks uploader..much appreciated smile1.gif
17/08/2012 05.38 am

Thanks.grin.gif
22/07/2012 11.00 pm

thank you smile1.gif
29/06/2012 07.49 am

thanks a buch!! smile1.gif
12/09/2011 11.20 am

cry.gif
09/06/2011 02.34 am

i love this! Thank you! smile1.gif
28/05/2011 04.57 pm

Not her best drama, but anything featuring Yoon Eun Hye is always on my list of things to watch...tongue.gif
28/05/2011 12.07 pm

it was big disappointment to see Yoon Eun Hye cut her hair short >_<




ADS