User Info

ADS

Torrent’s details
Name The Princess' Man (2011) HDTV 720p-HanSun Complete Series
  You will need to Register or Login to download!
Info Hash 3be26deb9b89bafb4aa9713d7fed86a0d8e85e1e
Description

http://wiki.d-addicts.com/The_Princess'_Man
http://www.hancinema.net/korean_drama_The_Princess___Man.php
http://asianmediawiki.com/The_Princess%27_Man

Title: 공주의 남자 / Gongjooeui Namja
Genre: Period, romance
Episodes: 24
Broadcast network: KBS2
Broadcast period: 2011-Jul-20 to 2011-Oct-06
Air time: Wednesday & Thursday 21:55
Language: Korean
Country: South Korea
Subtitles: English (credit to WITHS2)

Production Credits
Director: Kim Jung Min
Screenwriter: Jo Jung Joo (조정주)

Main Cast
Moon Chae Won as Lee Se Ryung
Park Shi Hoo as Kim Seung Yoo
Song Jong Ho as Shin Myun
Hong Soo Hyun as Princess Kyung Hye
Lee Soon Jae as Kim Jong Seo
Kim Young Chul as Prince Suyang (later King Sejo)
Lee Min Woo as Jung Jong

Recognitions
2011 KBS Drama Awards:
Top Excellence Award, Actor (Park Shi Hoo)
Top Excellence Award, Actress (Moon Chae Won)
Excellence Award for Mid-length Drama, Actress (Hong Soo Hyun)
Best Couple (Park Shi Hoo and Moon Chae Won)
Best Couple (Lee Min Woo and Hong Soo Hyun)
Popularity Award (Park Shi Hoo)
Popularity Award (Moon Chae Won)


Synopsis
It’s a tragic love story of the two young man and woman! The son of Kim Jongseo, Seungyoo, is a handsome and wise man who carries a noble quality. Princess Seryeong, a daughter of King Sejo, aka prince Sooyang, is a cheerful, lively lady with a strong curiosity and bold personality. They fall in love instantly but later they find out that their parents are sworn enemies. It’s a Chosun dynasty version of “Romeo and Juliet”.


General
Complete name                  : The Princess' Man E01 110720 HDTV-Film H264 720p-HanSun.mp4
Format                         : MPEG-4
Format profile                 : Base Media
Codec ID                       : isom
File size                      : 947 MiB
Duration                       : 1h 5mn
Overall bit rate mode          : Variable
Overall bit rate               : 2 029 Kbps

Video
ID                             : 1
Format                         : AVC
Format/Info                    : Advanced Video Codec
Format profile                 : Main@L3.1
Format settings, CABAC         : Yes
Format settings, ReFrames      : 5 frames
Codec ID                       : avc1
Codec ID/Info                  : Advanced Video Coding
Duration                       : 1h 5mn
Bit rate                       : 1 897 Kbps
Maximum bit rate               : 15.1 Mbps
Width                          : 1 280 pixels
Height                         : 720 pixels
Display aspect ratio           : 16:9
Frame rate mode                : Variable
Frame rate                     : 24.191 fps
Original frame rate            : 29.970 fps
Minimum frame rate             : 23.976 fps
Maximum frame rate             : 29.970 fps
Color space                    : YUV
Chroma subsampling             : 4:2:0
Bit depth                      : 8 bits
Scan type                      : Progressive
Bits/(Pixel*Frame)             : 0.085
Stream size                    : 885 MiB (93%)
Writing library                : x264 core 116 r2037 f8ebd4a

Audio
ID                             : 2
Format                         : AAC
Format/Info                    : Advanced Audio Codec
Format profile                 : LC
Codec ID                       : 40
Duration                       : 1h 5mn
Bit rate mode                  : Variable
Bit rate                       : 128 Kbps
Maximum bit rate               : 147 Kbps
Channel(s)                     : 2 channels
Channel positions              : Front: L R
Sampling rate                  : 48.0 KHz
Compression mode               : Lossy
Stream size                    : 59.7 MiB (6%)




IMDB
IMDB Extra
More.Info
Category Korean TV 720p-1080p
Rating
Size 27.09 GB
Show/Hide Files
48 files
AddDate 21/03/2012
Uploader ANONYMOUS
Speed 394.26 KB/sec
Down 929 times
peers seeds: 22, leechers: 4 = 26 peers
Who thanked
Report
Reseed


06/06/2013 07.37 am

thank you  
09/04/2013 06.17 pm

heard good this about this drama looking forward to watching it. Don't really like historical drama apart from the moon that embraces the sun.
17/01/2013 02.45 am

thank you!smile1.gif
16/11/2012 11.58 am

Is there a smaller size for this drama? smile1.gif Like your other complete dramas.. around 3 to 4 GB size only.. smile1.gif
11/08/2012 09.58 pm

Actually, the subtitles are in the torrent file. I realized that after loading the torrent file.
11/08/2012 09.53 pm

Subtitles can be found at WithS2.com.

http://withs2.com/view/the-princess-man
04/08/2012 05.54 pm

Is there any subtitles?
28/05/2012 09.33 pm

Is anyone else having trouble with episode 24.  It is the only one that will not play in Media Player.  I can get it to play in other players but for some reason it only has a problem with Media Player.
23/04/2012 11.38 am

WOW. Amazing and congratulations on your achievement,1000th uh??HIHI
Thank you for all the hard work.
Cheersgrin.gif
25/03/2012 09.14 pm

Thank you!
25/03/2012 03.30 pm

Thank you , you are the best !!  grin.gif
21/03/2012 09.32 pm

Congratulations on your 1000th upload!!! And a million thanks for sharing these to us. (=^_^)v
21/03/2012 07.51 pm

Congratulations mate! Slow down, otherwise we won't have what to uploadgrin.gif thumbsup.gif
21/03/2012 07.45 pm

Wow! Congrats for the 1000th gettora.. thumbsup.gif
21/03/2012 07.42 pm

For my 1000th upload, a golden torrent! Please keep it alive! Thank you smile1.gif




ADS