User Info

ADS

Torrent’s details
Name Marry Him If You Dare E15 HDTV XVID LIMO
  You will need to Register or Login to download!
Info Hash 39396623dc82e744bc6dcffbd32ea9f727aa59db
Description

Details

Title: 미래의 선택 / Mi Rae-ui Suntaek
Also known as: Mi Rae's Choice / Future's Choice / The Choice of the Future / The Future Choice
Genre: Romance, comedy, time travel, fantasy
Episodes: TBA
Broadcast network: KBS2
Broadcast period: 2013-Oct-14 to 2013-Dec-??
Air time: Monday & Tuesday 22:00
Subtitles by VIKI and Dramafever will be added later

Synopsis
32 years old for woman is an age which may be little too late to start something new or little too early to give up something. The 'future-self' comes to ‘me’ today and gives advices about life and marriage. The future-self is trying to bring better life by helping her to meet a perfect spouse.--KBS World
This drama will tell the story about a 57 years old woman named Na Mi Rae (Choi Myung Gil) from 2038, a television broadcast writer, travels back in time to meet her 32-year-old self (Yoon Eun Hye) from 2013 with the goal of preventing her marriage to Kim Shin (Lee Dong Gun) and thus send her past self down a different path in life.

Main Cast
Yoon Eun Hye as Na Mi Rae (32)
Choi Myung Gil as Na Mi Rae's future self (57)
Lee Dong Gun as Kim Shin (35)
Jung Yong Hwa as Park Se Joo (28)
Han Chae Ah as Seo Yoo Kyung (28)
People in Broadcasting Station
Oh Jung Se as Na Joo Hyun (35)
Lee Mi Do as Bae Hyun Ah (30)
Ahn Se Ha as Lee Jae Soo (32)
Go Doo Shim as Lee Mi Ran (65)





Code
Video
ID                                       : 0
Format                                   : MPEG-4 Visual
Format profile                           : Advanced Simple@L5
Format settings, BVOP                    : No
Format settings, QPel                    : No
Format settings, GMC                     : No warppoints
Format settings, Matrix                  : Default (MPEG)
Codec ID                                 : XVID
Codec ID/Hint                            : XviD
Duration                                 : 1h 6mn
Bit rate                                 : 1 391 Kbps
Width                                    : 624 pixels
Height                                   : 352 pixels
Display aspect ratio                     : 16:9
Frame rate                               : 29.970 fps
Color space                              : YUV
Chroma subsampling                       : 4:2:0
Bit depth                                : 8 bits
Scan type                                : Progressive
Compression mode                         : Lossy
Bits/(Pixel*Frame)                       : 0.211
Stream size                              : 660 MiB (87%)
Writing library                          : XviD 1.2.1 (UTC 2008-12-04)

Audio
ID                                       : 1
Format                                   : MPEG Audio
Format version                           : Version 1
Format profile                           : Layer 3
Mode                                     : Joint stereo
Mode extension                           : MS Stereo
Codec ID                                 : 55
Codec ID/Hint                            : MP3
Duration                                 : 1h 6mn
Bit rate mode                            : Constant
Bit rate                                 : 128 Kbps
Channel(s)                               : 2 channels
Sampling rate                            : 48.0 KHz
Compression mode                         : Lossy
Stream size                              : 60.8 MiB (8%)
Alignment                                : Aligned on interleaves
Writing library                          : LAME3.98.2
Language                                 : un

IMDB No IMDB ID been added..
Category Korean TV
Rating
Size 721.78 MB
Show/Hide Files
1 file
AddDate 02/12/2013
Uploader ANONYMOUS
Speed 0 KB/sec
Down 433 times
peers seeds: 1, leechers: 0 = 1 peers
Who thanked
Report
Reseed


04/12/2013 04.35 am

thanks!
02/12/2013 11.57 pm

grin.gif Thak You grin.gif
02/12/2013 07.40 pm

You are the best thank you thumbsup.giftongue.gifsmile2.gif




ADS