User Info

ADS

Torrent’s details
Name Hajimete no Otsukai (2010)
  You will need to Register or Login to download!
Info Hash 391210e7d44457af29a6ce988fa782b17466f0a7
Description


English Title: First Errands (Unofficial)
Genre: Documentation, Kids
Language: Japanese
Subtitles: None
Broadcast Network: NTV
Broadcast on: 2010 Jan 01
Country: Japan
Runtime: 2:03:24
Credits to warbird@d-addicts, who originally uploaded this

Info:
Hajimete no Otsukai is basically a show, where parents send their kids (Usually somewhere between 4 and 7 years)
to run some errands. (It's mostly shopping). Also featured in those shows are various celebrities which are commenting the show and sometimes tell something about their own childhood. And don't worry about safety issues, the kids are being followed by a bunch of cameramen.

Further Info:
http://www.japanprobe.com/2009/07/22/japanese-kids-go-shopping/

Screenshots








Media Info:
General
Format                                   : AVI
Format/Info                              : Audio Video Interleave
File size                                : 1.19 GiB
Duration                                 : 2h 3mn
Overall bit rate                         : 1 383 Kbps
Writing library                          : VirtualDub build 32706/release
Video
ID                                       : 0
Format                                   : MPEG-4 Visual
Format profile                           : Advanced Simple@L5
Format settings, BVOP                    : 2
Format settings, QPel                    : No
Format settings, GMC                     : No warppoints
Format settings, Matrix                  : Default (H.263)
Muxing mode                              : Packed bitstream
Codec ID                                 : XVID
Codec ID/Hint                            : XviD
Duration                                 : 2h 3mn
Bit rate                                 : 1 243 Kbps
Width                                    : 540 pixels
Height                                   : 360 pixels
Display aspect ratio                     : 3:2
Frame rate                               : 29.970 fps
Color space                              : YUV
Chroma subsampling                       : 4:2:0
Bit depth                                : 8 bits
Scan type                                : Progressive
Compression mode                         : Lossy
Bits/(Pixel*Frame)                       : 0.213
Stream size                              : 1.07 GiB (90%)
Writing library                          : XviD 1.2.1 (UTC 2008-12-04)
Audio
ID                                       : 1
Format                                   : MPEG Audio
Format version                           : Version 1
Format profile                           : Layer 3
Mode                                     : Joint stereo
Mode extension                           : MS Stereo
Codec ID                                 : 55
Codec ID/Hint                            : MP3
Duration                                 : 2h 3mn
Bit rate mode                            : Constant
Bit rate                                 : 128 Kbps
Channel(s)                               : 2 channels
Sampling rate                            : 48.0 KHz
Compression mode                         : Lossy
Stream size                              : 113 MiB (9%)
Alignment                                : Split accross interleaves
Interleave, duration                     : 33 ms (1.00 video frame)
Interleave, preload duration             : 500 ms


IMDB No IMDB ID been added..
Category Japanese TV
Rating N/A
Size 1.19 GB
Show/Hide Files
1 file
AddDate 21/05/2013
Uploader ANONYMOUS
Speed 0 KB/sec
Down 41 times
peers seeds: 1, leechers: 0 = 1 peers
Who thanked
Report
Reseed


22/10/2013 02.25 pm

Love this show! Thanks!




ADS