User Info

ADS

Torrent’s details
Name Noisy Requiem (1988) Yoshihiko Matsui
  You will need to Register or Login to download!
Info Hash 38fb6436640928ba406086e691185d4c5dbbd249
Description








Plot :

The Noisy Requiem is an underground j-film about a serial killer who dissects his victims' organs to add them on his plastic doll


IMDB LINK: http://www.imdb.com/title/tt0281001/
Cast:  Toshihiko Hino, Simon Kumai, Yukiko Murata, Mamiko Nakai , Dan Oosuga, Kazuhiro Sano, Akane Shirafuji
Directed: Yoshihiko Matsui
Genregrin.giframa
Runtime: 2 h 30 min
Also Known As: Tsuitô no zawameki
Country: Japan
Language: japanese
Subtitles: english














General

Format                           : AVI
Format/Info                      : Audio Video Interleave
Format profile                   : OpenDML
File size                        : 2.01 GiB
Duration                         : 2h 29mn
Overall bit rate                 : 1 925 Kbps
Writing application              : MEncoder dev-SVN-rUNKNOWN-4.2.1
Writing library                  : MPlayer

Video
ID                               : 0
Format                           : MPEG-4 Visual
Format profile                   : AdvancedSimple@L5
Format settings, BVOP            : Yes
Format settings, QPel            : No
Format settings, GMC             : No warppoints
Format settings, Matrix          : Default (MPEG)
Codec ID                         : XVID
Codec ID/Hint                    : XviD
Duration                         : 1h 15mn
Bit rate                         : 3 618 Kbps
Width                            : 640 pixels
Height                           : 480 pixels
Display aspect ratio             : 4:3
Frame rate                       : 23.976 fps
Resolution                       : 24 bits
Colorimetry                      : 4:2:0
Scan type                        : Progressive
Bits/(Pixel*Frame)               : 0.491
Stream size                      : 1.91 GiB (95%)


Audio
ID                               : 1
Format                           : MPEG Audio
Format version                   : Version 1
Format profile                   : Layer 3
Codec ID                         : 55
Codec ID/Hint                    : MP3
Duration                         : 2h 29mn
Bit rate mode                    : Variable
Bit rate                         : 85.6 Kbps
Channel(s)                       : 1 channel
Sampling rate                    : 48.0 KHz
Resolution                       : 16 bits
Stream size                      : 91.7 MiB (4%)

IMDB
IMDB Extra
More.Info
Category Japanese Movie
Rating N/A
Size 2.01 GB
Show/Hide Files
2 files
AddDate 08/05/2010
Uploader ANONYMOUS
Speed 0 KB/sec
Down 224 times
peers seeds: 7, leechers: 0 = 7 peers
Who thanked
Report
Reseed


12/05/2010 01.51 pm

Thank you so much for filling in my request!!!!!!
10/05/2010 11.53 am

A masterpiece
Thank you Send as anonymousclover.gif
09/05/2010 04.38 pm

OK. Fine. Thanks.




ADS