User Info

ADS

Torrent’s details
Name My Love From Another Star E17 HDTV XVID LIMO
  You will need to Register or Login to download!
Info Hash 34067f99e7cac07cf665021bbe35c688f7826c4c
Description

Details

Title: 별에서 온 그대 / Byeoleseo On Geudae
Also known as: You Came From the Stars / My Lover From The Stars
Previously known as: 별에서 온 남자 / Byeolyeseo On Namja (Man From the Stars)
Genre: Romance, comedy, melodrama
Episodes: TBA
Broadcast network: SBS
Broadcast period: 2013-Dec-18 to 2014-??-??
Air time: Wednesday & Thursday 22:00
Subtitles by Dramafever and viki will be added later

Synopsis

Do Min Joon is an alien who lands in the Joseon era, and then lives through the next four hundred years to the present day where he works as university professor and falls in love with a haughty top actress, Chun Song Yi.
Cast

Main Cast
Jun Ji Hyun as Chun Song Yi (28, top actress/university student)
Kim Hyun Soo as young Chun Song Yi
Kim Soo Hyun as Do Min Joon (alien/university professor)
Park Hae Jin as Lee Hwi Kyung (28, youngest son of S&C Group)
Jo Seung Hyun (조승현) as young Hwi Kyung
Yoo In Na as Yoo Se Mi (28, supporting actress)




Code
Video
ID                                       : 0
Format                                   : MPEG-4 Visual
Format profile                           : Advanced Simple@L5
Format settings, BVOP                    : No
Format settings, QPel                    : No
Format settings, GMC                     : No warppoints
Format settings, Matrix                  : Default (MPEG)
Codec ID                                 : XVID
Codec ID/Hint                            : XviD
Duration                                 : 1h 6mn
Bit rate                                 : 1 391 Kbps
Width                                    : 624 pixels
Height                                   : 352 pixels
Display aspect ratio                     : 16:9
Frame rate                               : 29.970 fps
Color space                              : YUV
Chroma subsampling                       : 4:2:0
Bit depth                                : 8 bits
Scan type                                : Progressive
Compression mode                         : Lossy
Bits/(Pixel*Frame)                       : 0.211
Stream size                              : 660 MiB (87%)
Writing library                          : XviD 1.2.1 (UTC 2008-12-04)

Audio
ID                                       : 1
Format                                   : MPEG Audio
Format version                           : Version 1
Format profile                           : Layer 3
Mode                                     : Joint stereo
Mode extension                           : MS Stereo
Codec ID                                 : 55
Codec ID/Hint                            : MP3
Duration                                 : 1h 6mn
Bit rate mode                            : Constant
Bit rate                                 : 128 Kbps
Channel(s)                               : 2 channels
Sampling rate                            : 48.0 KHz
Compression mode                         : Lossy
Stream size                              : 60.8 MiB (8%)
Alignment                                : Aligned on interleaves
Writing library                          : LAME3.98.2

IMDB No IMDB ID been added..
Category Korean TV
Rating
Size 672.83 MB
Show/Hide Files
1 file
AddDate 13/02/2014
Uploader ANONYMOUS
Speed 0 KB/sec
Down 1148 times
peers seeds: 9, leechers: 0 = 9 peers
Who thanked
Report
Reseed


14/02/2014 01.48 am

very fast uploading of subs...thanks for the great work!
14/02/2014 01.16 am

thanks!
13/02/2014 09.47 pm

stuck at finding peers
13/02/2014 06.22 pm

Subtitles .. please please ... xoxotongue.gif
13/02/2014 05.32 pm

grin.gif Thank You grin.gif
13/02/2014 04.58 pm

thankssmile1.gif
13/02/2014 03.45 pm

thanks grin.gif




ADS