User Info

ADS

Torrent’s details
Name Hooray For Love.E05.110730.HDTV.XviD-HANrel
  You will need to Register or Login to download!
Info Hash 3177874e3514382ed6bec07dcdbfe55a460278be
Description


Title: Hooray for Love / 애정만만세 / Aejungmanmanse
Also known as: Long Live Love
Previous known as: The Woman Who Never Loses / 지지 않는 여자
Genre: Romance
Episodes: 50 (not official yet, but most likely)
Broadcast netowrk: MBC
Broadcast period: 2011-Jul-16 to TBA
Air time: Saturday & Sunday 21:45

Synopsis: The drama is about the success story of a woman named Jae-mi (Lee Bo-young) who divorces her loser husband (Jin Yi-han) and finds new love with the lawyer hired to invalidate their divorce (Lee Tae-sung). (Dramabeans)



General
Complete name                    : Hooray For Love[D-A] Hooray For Love.E05.110730.HDTV.XviD-HANrel.avi
Format                           : AVI
Format/Info                      : Audio Video Interleave
File size                        : 800 MiB
Duration                         : 1h 8mn
Overall bit rate                 : 1 633 Kbps
Writing application              : VirtualDubMod 1.5.10.2 (build 2540/release)
Writing library                  : VirtualDubMod build 2540/release

Video
ID                               : 0
Format                           : MPEG-4 Visual
Format profile                   : Advanced Simple@L5
Format settings, BVOP            : Yes
Format settings, QPel            : No
Format settings, GMC             : No warppoints
Format settings, Matrix          : Default (H.263)
Muxing mode                      : Packed bitstream
Codec ID                         : XVID
Codec ID/Hint                    : XviD
Duration                         : 1h 8mn
Bit rate                         : 1 429 Kbps
Width                            : 624 pixels
Height                           : 352 pixels
Display aspect ratio             : 16:9
Frame rate                       : 29.970 fps
Resolution                       : 8 bits
Colorimetry                      : 4:2:0
Scan type                        : Progressive
Bits/(Pixel*Frame)               : 0.217
Stream size                      : 701 MiB (88%)
Writing library                  : XviD 1.1.2 (UTC 2006-11-01)

Audio
ID                               : 1
Format                           : AC-3
Format/Info                      : Audio Coding 3
Codec ID                         : 2000
Duration                         : 1h 8mn
Bit rate mode                    : Constant
Bit rate                         : 192 Kbps
Channel(s)                       : 2 channels
Channel positions                : Front: L R
Sampling rate                    : 48.0 KHz
Stream size                      : 94.1 MiB (12%)
Alignment                        : Aligned on interleaves
Interleave, duration             : 33 ms (1.00 video frame)
Interleave, preload duration     : 512 ms

IMDB No IMDB ID been added..
Category Korean TV
Rating N/A
Size 800.40 MB
Show/Hide Files
1 file
AddDate 23/09/2011
Uploader ANONYMOUS
Speed 0 KB/sec
Down 22 times
peers seeds: 0, leechers: 0 = 0 peers
Who thanked
Report
Reseed


No comments...




ADS