User Info

ADS

Torrent’s details
Name AKBingo! - Episodes 1-20 [Eng Subs]
  You will need to Register or Login to download!
Info Hash 31678afee735b49cc24b0f503330406cd132f247
Description Show Information
Genre: Variety show
Created by: Yasushi Akimoto
Directed by: Koji Fujimoto, Takeshi Omata
Starring: AKB48, Bad Boys
Opening theme: Aitakatta by AKB48
Composer(s): Yasushi Akimoto, BOUNCEBACK
Subtitles: DarkScorpion
More info: http://stage48.net/wiki/index.php/AKB_1ji_59fun

About show: AKBingo! is a Japanese television variety show starring Japanese idol girl group AKB48 and hosted by owarai duo Bad Boys (バッドボーイズ Baddo Bōizu?). The show is broadcast every Wednesday at 24:59 JST (Thursday 0:59 JST) on Nippon Television. Its opening theme song is called Aitakatta,(I've been waiting) which is performed by the group themselves. In every episode, the group does many activities which include quizzes, sports, and news from the groups.

(Source: Wikipedia)

Episodes: 2008-10-01 to 2009-02-12

Screenshots:





Video:



Media Info

Code

General
Format                                   : MPEG-4
Format profile                           : Base Media
Codec ID                                 : isom
File size                                : 365 MiB
Duration                                 : 23mn 58s
Overall bit rate                         : 2 128 Kbps
Tagged date                              : UTC 2012-09-04 11:07:57
Writing application                      : Lavf53.27.0

Video
ID                                       : 1
Format                                   : AVC
Format/Info                              : Advanced Video Codec
Format profile                           : High@L3.1
Format settings, CABAC                   : Yes
Format settings, ReFrames                : 5 frames
Codec ID                                 : avc1
Codec ID/Info                            : Advanced Video Coding
Duration                                 : 23mn 58s
Bit rate                                 : 2 000 Kbps
Width                                    : 1 280 pixels
Height                                   : 720 pixels
Display aspect ratio                     : 16:9
Frame rate mode                          : Constant
Frame rate                               : 29.970 fps
Color space                              : YUV
Chroma subsampling                       : 4:2:0
Bit depth                                : 8 bits
Scan type                                : Progressive
Bits/(Pixel*Frame)                       : 0.072
Stream size                              : 342 MiB (94%)
Writing library                          : x264 core 120 r2M 0f692db
Encoding settings                        : cabac=1 / ref=5 / deblock=1:0:0 / analyse=0x3:0x113 / me=umh / subme=8 / psy=1 / psy_rd=1.00:0.00 / mixed_ref=1 / me_range=8 / chroma_me=1 / trellis=1 / 8x8dct=1 / cqm=0 / deadzone=21,11 / fast_pskip=1 / chroma_qp_offset=-2 / threads=4 / sliced_threads=0 / nr=0 / decimate=1 / interlaced=0 / bluray_compat=0 / constrained_intra=0 / bframes=3 / b_pyramid=2 / b_adapt=2 / b_bias=0 / direct=3 / weightb=1 / open_gop=0 / weightp=2 / keyint=300 / keyint_min=29 / scenecut=40 / intra_refresh=0 / rc_lookahead=50 / rc=2pass / mbtree=1 / bitrate=2000 / ratetol=1.0 / qcomp=0.60 / qpmin=0 / qpmax=69 / qpstep=4 / cplxblur=20.0 / qblur=0.5 / vbv_maxrate=3000 / vbv_bufsize=4000 / nal_hrd=none / ip_ratio=1.40 / aq=1:1.00

Audio
ID                                       : 2
Format                                   : AAC
Format/Info                              : Advanced Audio Codec
Format profile                           : LC
Codec ID                                 : 40
Duration                                 : 23mn 58s
Bit rate mode                            : Constant
Bit rate                                 : 128 Kbps
Channel(s)                               : 2 channels
Channel positions                        : Front: L R
Sampling rate                            : 44.1 KHz
Compression mode                         : Lossy
Delay relative to video                  : 67ms
Stream size                              : 21.9 MiB (6%)

IMDB No IMDB ID been added..
Category Japanese TV 720p-1080p
Rating N/A
Size 7.00 GB
Show/Hide Files
20 files
AddDate 28/04/2013
Uploader ANONYMOUS
Speed 0 KB/sec
Down 81 times
peers seeds: 2, leechers: 2 = 4 peers
Who thanked
Report
Reseed


28/08/2014 10.27 am

I will reseed this torrent again for you guys =)




ADS