User Info

ADS

Torrent’s details
Name Rasen (1999) Complete series (Eng subbed)
  You will need to Register or Login to download!
Info Hash 300ec62f187ca6fe940c5d75df36dcbbc48f2487
Description


Title: らせん
Title (romaji): Rasen
Also known as: Spiral
Chinese name: 午夜凶铃之螺旋
Tagline: あなたも貞子から逃げられない。
Genre: Mystery, suspense
Episodes: 13
Broadcast network: Fuji TV
Broadcast period: 1999-Jul-01 to 1999-Sep-23

Synopsis:
The sequel to the hit drama "Ring: The Final Chapter". This time, Sadako leaves the well, and she finds another way to destroy the world, a method that would destroy the world quicker than the video. Can Ando (Kishitani Goro) and Natsumi (Yoshimoto Takami) find a way to save the world from total destruction?



Thanks to Avallac'h @ D-addicts


Code
General
Unique ID                                : 174463856986551401016692572099426486427 (0x83408442698367A3A5CF6A1AF589889B)
Complete name                            : Rasen (1999)Rasen 01.mkv
Format                                   : Matroska
Format version                           : Version 2
File size                                : 599 MiB
Duration                                 : 46mn 39s
Overall bit rate                         : 1 794 Kbps
Encoded date                             : UTC 2013-08-05 10:02:43
Writing application                      : mkvmerge v4.7.0 ('Just Like You Imagined') сборка от Apr 21 2011 01:13:14
Writing library                          : libebml v1.2.0 + libmatroska v1.1.0

Video
ID                                       : 1
Format                                   : AVC
Format/Info                              : Advanced Video Codec
Format profile                           : High@L4.1
Format settings, CABAC                   : Yes
Format settings, ReFrames                : 8 frames
Codec ID                                 : V_MPEG4/ISO/AVC
Duration                                 : 46mn 39s
Bit rate                                 : 1 600 Kbps
Width                                    : 640 pixels
Height                                   : 480 pixels
Display aspect ratio                     : 4:3
Frame rate mode                          : Constant
Frame rate                               : 29.970 fps
Color space                              : YUV
Chroma subsampling                       : 4:2:0
Bit depth                                : 8 bits
Scan type                                : Progressive
Bits/(Pixel*Frame)                       : 0.174
Stream size                              : 523 MiB (87%)
Writing library                          : x264 core 125 r2200bm 999b753
Encoding settings                        : cabac=1 / ref=8 / deblock=1:0:0 / analyse=0x3:0x133 / me=umh / subme=9 / psy=1 / psy_rd=1.00:0.00 / mixed_ref=1 / me_range=16 / chroma_me=1 / trellis=2 / 8x8dct=1 / cqm=0 / deadzone=21,11 / fast_pskip=1 / chroma_qp_offset=-2 / threads=3 / lookahead_threads=1 / sliced_threads=0 / nr=0 / decimate=1 / interlaced=0 / bluray_compat=0 / constrained_intra=0 / bframes=3 / b_pyramid=2 / b_adapt=2 / b_bias=0 / direct=3 / weightb=1 / open_gop=0 / weightp=2 / keyint=250 / keyint_min=25 / scenecut=40 / intra_refresh=0 / rc_lookahead=60 / rc=2pass / mbtree=1 / bitrate=1600 / ratetol=1.0 / qcomp=0.60 / qpmin=0 / qpmax=69 / qpstep=4 / cplxblur=20.0 / qblur=0.5 / ip_ratio=1.40 / aq=1:1.00
Language                                 : Japanese
Default                                  : Yes
Forced                                   : No

Audio
ID                                       : 2
Format                                   : AC-3
Format/Info                              : Audio Coding 3
Mode extension                           : CM (complete main)
Format settings, Endianness              : Big
Codec ID                                 : A_AC3
Duration                                 : 46mn 39s
Bit rate mode                            : Constant
Bit rate                                 : 192 Kbps
Channel(s)                               : 2 channels
Channel positions                        : Front: L R
Sampling rate                            : 48.0 KHz
Bit depth                                : 16 bits
Compression mode                         : Lossy
Delay relative to video                  : 18ms
Stream size                              : 64.1 MiB (11%)
Language                                 : Japanese
Default                                  : Yes
Forced                                   : No

IMDB
IMDB Extra
More.Info
Category Japanese TV
Rating
Size 7.61 GB
Show/Hide Files
13 files
AddDate 13/08/2013
Uploader ANONYMOUS
Speed 0 KB/sec
Down 192 times
peers seeds: 5, leechers: 0 = 5 peers
Who thanked
Report
Reseed


15/07/2014 05.51 pm

I thought this is long dead and missing title impossible to get anywhere, thank you very much for it.grin.gif
18/03/2014 05.50 pm

Thanks you guys!!!!
03/12/2013 09.03 pm

7 GB is something my seedbox can afford having indefinetely, count on me as a seeder as soon as I finish downloading grin.gif

I can't express my gratitude in words so I'll express it by seeding.
08/11/2013 10.50 am

What a wonderful surprise!!! Thanks... THANKS... AND MORE THANKS!!!!!!!!!!!!!!!!!!!!!!!!!!
28/09/2013 10.01 am

Please seed!! 39 downloads and 2 seeders? let's keep this torrent alive. I been watig this for years.
16/09/2013 07.57 am

words can not say how grateful we all are
22/08/2013 08.44 pm

omg! yes! my ringu collection will now be complete! thanx! been looking for this forever! :0)




ADS