User Info

ADS

Torrent’s details
Name Love.Lesson.2013.DC.720p.HDRip.Xvid-UBNETWORKS[No Subs]
  You will need to Register or Login to download!
Info Hash 2f94316c5b9ae875e44d0e4d31f091ff4bbb852a
Description Audio Sound : Korean
Subtitle : None






 Movie: Love Lesson
 Revised romanization: Hwaryeonhan Oechul
 Hangul: 화려한 외출
 Director: Ko Kyoung-A
 Release Date: December 5, 2013
 Runtime: 80 min.
 Language: Korean
 Country: South Korea





Hee-Soo (Kim Sun-Young) is a popular songwriter with numerous hits, but she is going through a dry spell. She wonders if she lost her inspiration, because she is lonely. Hee-Soo then meets a boy (Byun Joon-Suk) in the elevator of an apartment building. She notices his stares. Hee-Soo feels a new song coming about.
On the pretext of giving the boy music lessons, Hee-Soo gives the boy a lesson in love. As time passes, the boy falls for her more and more and Hee-Soo's song is almost completed. At this time, Joon-Ho, who taught her about love and music, returns.
















Code
Complete name             : Love.Lesson.2013.DC.720p.HDRip.Xvid-UBNETWORKS.avi
Format                                   : AVI
Format/Info                              : Audio Video Interleave
Format profile                           : OpenDML
File size                                : 2.46 GiB
Duration                                 : 1h 24mn
Overall bit rate                         : 4 184 Kbps
Writing application                      : PotEncoder

Video
ID                                       : 0
Format                                   : MPEG-4 Visual
Format profile                           : Advanced Simple@L5
Format settings, BVOP                    : No
Format settings, QPel                    : No
Format settings, GMC                     : No warppoints
Format settings, Matrix                  : Default (MPEG)
Codec ID                                 : XVID
Codec ID/Hint                            : XviD
Duration                                 : 1h 24mn
Bit rate                                 : 3 980 Kbps
Width                                    : 1 280 pixels
Height                                   : 720 pixels
Display aspect ratio                     : 16:9
Frame rate                               : 29.970 fps
Color space                              : YUV
Chroma subsampling                       : 4:2:0
Bit depth                                : 8 bits
Scan type                                : Progressive
Compression mode                         : Lossy
Bits/(Pixel*Frame)                       : 0.144
Stream size                              : 2.34 GiB (95%)
Writing library                          : XviD 1.2.1 (UTC 2008-12-04)

Audio
ID                                       : 1
Format                                   : MPEG Audio
Format version                           : Version 1
Format profile                           : Layer 3
Mode                                     : Joint stereo
Mode extension                           : MS Stereo
Codec ID                                 : 55
Codec ID/Hint                            : MP3
Duration                                 : 1h 24mn
Bit rate mode                            : Constant
Bit rate                                 : 192 Kbps
Channel(s)                               : 2 channels
Sampling rate                            : 44.1 KHz
Compression mode                         : Lossy
Stream size                              : 115 MiB (5%)
Alignment                                : Aligned on interleaves
Interleave, duration                     : 26 ms (0.78 video frame)
Writing library                          : LAME3.98.2




IMDB No IMDB ID been added..
Category Korean - Erotica/+18
Rating
Size 2.46 GB
Show/Hide Files
1 file
AddDate 30/01/2014
Uploader ANONYMOUS
Speed 0 KB/sec
Down 1976 times
peers seeds: 79, leechers: 0 = 79 peers
Who thanked
Report
Reseed


20/06/2014 07.30 am

I thought when they put DC version it came from the DVD.. cry.gif
14/06/2014 03.34 am

Worst subbing ever not enough to cover each person talking.... Now I gotta waste my upload for this thanks..
03/06/2014 05.49 pm

I really think the person who made these subtitles was guessing at what was being said in the movie. 99.9% of it is wrong. It's a completely inaccurate translation and not even in proper English either. I would not waste time on these subs. You're better off watching the movie raw.
03/06/2014 05.38 pm

These subs are not accurate. Not at all.
14/04/2014 02.12 pm

The sub is not in sync with this release because this version is a director's cut. It's only in sync with the other one.
11/04/2014 02.08 pm

Please review if subtitles are working or out of sync with this release. angel.gif
They were made perfect for another release.  8)
09/03/2014 11.54 am

ENGLISH SUBS PLEASE? sad.gif
11/02/2014 06.53 am

Does the main female cast have anymore movie like this?
02/02/2014 02.26 pm

Who needs subs when there's tits?
31/01/2014 01.03 pm

Movie's subs is slower than dramas.
Niche movie subs is slower than main stream movie.

This is not a drama.
This is not a main stream movie.
So............sleep.gif
31/01/2014 12.36 pm

maybe they will make for this movie but wait movies take more to sub then dramas angry.gif
30/01/2014 10.14 pm

Too bad these never have subs..
30/01/2014 05.05 pm

Thanks!smile1.gif




ADS