User Info

ADS

Torrent’s details
Name {SB} - A Taste of Cold Steel (Feng Yueh, 1970)
  You will need to Register or Login to download!
Info Hash 2f8a09e5f73d4c83c183f6c8d0e18649b0f2eff7
Description


Title: A Taste of Cold Steel
Other titles: Wu Lin Feng Yun / Mo Lam Fung Wan
Year: 1970
Genre: Martial Arts / Action / Adventure
Directed: Feng Yueh
Country: Hong Kong
Studio: Shaw Brothers
Language: Chinese (mandarin)
Subtitles: English srt
File size: 699 MB
Runtime: 01:18:26
Source: Internet
IMDb: http://www.imdb.com/title/tt0194554/

Cast:
Shu Pooi-Pooi (Shu Pei-Pei), Chang Yi (Chang I), Chen Hung-Lieh (Chen Hung-Lieh), Essie Lin Chia, Wang Hsieh, Yau Ching, Ku Feng, Wong Chung-Shun, Fang Mian, Wu Ma, Simon Chui Yee-Ang, Lee Wan-Chung, Lee Kwan, Chan Man, Hung Lau, Yip Bo-Kam, James Tin Jun, Sammo Hung Kam-Bo.

Overview:
It's a no-holds-barred battle to the death for possession of the invaluable Purple Sword. Assistant director Wang Po-yi also wrote this entertaining and exciting adventure which could have also been called "The Five Tigers" since there's no doubt that this quintet is the highlight of the action. Huang Tsung-shun is "Fierce Tiger," Hung Liu is "Drunk Tiger," Hsu Erh-niu is "Lame Tiger," award-winning actor Ku Feng is "One-eyed Tiger" and respected director/actor Wu Ma is "Sick Tiger" in a tangle of tussles and thrills

Technical info:
Video:
ID: 0
Format: MPEG-4 Visual
Format profile: Advanced Simple@L5
Format settings, BVOP: Yes
Format settings, QPel: No
Format settings, GMC: No warppoints
Format settings, Matrix: Default (H.263)
Muxing mode: Packed bitstream
Codec ID: XVID
Codec ID/Hint: XviD
Duration: 1h 18mn
Bit rate: 1 139 Kbps
Width: 640 pixels
Height: 272 pixels
Display aspect ratio: 2.35:1
Frame rate: 25.000 fps
Color space: YUV
Chroma subsampling: 4:2:0
Bit depth: 8 bits
Scan type: Progressive
Bits/(Pixel*Frame): 0.262
Stream size: 639 MiB (91%)

Audio:
ID: 1
Format: MPEG Audio
Format version: Version 1
Format profile: Layer 3
Codec ID: 55
Codec ID/Hint: MP3
Duration: 1h 18mn
Bit rate mode: Variable
Bit rate: 96.0 Kbps
Channel(s): 1 channel
Sampling rate: 48.0 KHz
Stream size: 53.2 MiB (8%)
Alignment: Aligned on interleaves
Interleave, duration: 24 ms (0.60 video frame)
Interleave, preload duration: 490 ms

Snapshots:
IMDB
IMDB Extra
More.Info
Category Hong Kong Movie
Rating
Size 699.81 MB
Show/Hide Files
3 files
AddDate 06/09/2010
Uploader ANONYMOUS
Speed 0 KB/sec
Down 141 times
peers seeds: 2, leechers: 0 = 2 peers
Who thanked
Report
Reseed


No comments...




ADS