User Info

ADS

Torrent’s details
Name Dream of 400 Years (2011) Drama SP
  You will need to Register or Login to download!
Info Hash 2ee5214fefadbad445e63280f9ed00c0cead2389
Description

http://wiki.d-addicts.com/Dream_of_400_Years
http://www.koreandrama.org/?p=7524
http://asianwiki.com/400-year-old_Dream

Title: 사백년의 꿈 / Sabaeknyeonui Kkum
AKA: 400 Years' Dream / A 400-Year-Old Dream
Genre: Romance, fantasy
Format: Drama Special Series
Episodes: 2
Broadcast network: KBS2
Broadcast date: 2011-Mar-27 to 2011-Apr-03
Air time: Sunday 23:15
Language: Korean
Country: South Korea
Subtitles: English (by DarkSmurf CTS)

Production Credits
Director: Moon Young Jin (문영진)
Screenwriter: Chae Hye Young (채혜영), Kim Shin Tae (김신태), Choi Young In (최영인)

Main Cast
Han Eun Jung as Kang Hee Sun / Soo Hee
Ryu Tae Joon as Jo Hyun Min / Moo Hyun
Ahn Byung Kyung (안병경) as Duk Ki
Seo Ji Young as Ha Na
Kim Byung Chan (김병찬) as Jae Bum
Heo Jae Ho (허재호) as Dong Min
Kim Hyung Mi (김형미)

Recognitions
2011 KBS Drama Awards: One Act Special Award, Actress (Han Eun Jung)

Synopsis
Kang Hee Sun is a professor at the Hanbaek Medical School who is called in when Jo Hyun Min, the owner of a traditional Korean house, finds a mummy preserved in a small room in the barn which was previously sealed off. The two of them feel a strange sense of recognition at their first meeting, which they put down to instant attraction until the series of bizarre occurrences that followed lead them to suspect that they may actually be deeply connected to the mummy's past. Hee Sun and Hyun Min's investigation reveals the tragic story of a pair of lovers who were torn apart 400 years ago, with a resulting misunderstanding spawning a centuries-long hatred.

General
Complete name                    : Dream.Of.400.Years.2011-E01.mkv
Format                           : Matroska
Format version                   : Version 2
File size                        : 219 MiB
Duration                         : 1h 8mn
Overall bit rate                 : 450 Kbps
Writing application              : HandBrake svn3899
Writing library                  : libmkv 0.6.4.1

Video
ID                               : 1
Format                           : AVC
Format/Info                      : Advanced Video Codec
Format profile                   : High@L3.1
Format settings, CABAC           : Yes
Format settings, ReFrames        : 16 frames
Format settings, GOP             : M=2, N=3
Codec ID                         : V_MPEG4/ISO/AVC
Duration                         : 1h 8mn
Bit rate                         : 400 Kbps
Width                            : 704 pixels
Height                           : 400 pixels
Display aspect ratio             : 16:9
Frame rate mode                  : Variable
Frame rate                       : 29.970 fps
Color space                      : YUV
Chroma subsampling               : 4:2:0
Bit depth                        : 8 bits
Scan type                        : Progressive
Bits/(Pixel*Frame)               : 0.047
Stream size                      : 191 MiB (87%)
Writing library                  : x264 core 114

Audio
ID                               : 2
Format                           : Vorbis
Format settings, Floor           : 1
Codec ID                         : A_VORBIS
Duration                         : 1h 8mn
Bit rate mode                    : Variable
Bit rate                         : 48.0 Kbps
Channel(s)                       : 2 channels
Sampling rate                    : 48.0 KHz
Compression mode                 : Lossy
Stream size                      : 23.4 MiB (11%)
Writing library                  : aoTuV Beta 5 (UTC 2006-10-24)



IMDB No IMDB ID been added..
Category Korean TV
Rating
Size 436.42 MB
Show/Hide Files
7 files
AddDate 09/03/2012
Uploader ANONYMOUS
Speed 0 KB/sec
Down 358 times
peers seeds: 0, leechers: 0 = 0 peers
Who thanked
Report
Reseed


10/02/2013 06.38 am

Thank you!smile1.gif
15/12/2012 10.00 am

finally i found this,thank you very much kiss.gif
09/12/2012 10.59 pm

Thank you for uploading this drama special. Its so interesting!punk.gif
09/03/2012 12.01 pm

I've liked this special drama,i'm into this kinda thinks(mummy's)so it was ok




ADS