User Info

ADS

Torrent’s details
Name Faith E20 HDTV 720p KOR
  You will need to Register or Login to download!
Info Hash 2e8feb58312ec6f5ad446448a96bffe80371bbca
Description


Title: 신의 (神醫) / Shin-eui
Also known as: The Great Doctor
Tagline: Fantasy and history will meet. Person and person will meet. Person and heaven will meet.
Genre: Historical, romance, time travel, fantasy
Episodes: 24
Broadcast network: SBS
Broadcast period: 2012-Aug-13 to TBA
Air time: Monday & Tuesday 21:55
Subtitles by VIKI & Dramafever will be added later
There will be a 24hr delay for each person that annoys me for subtitles.


Synopsis
The romance between a warrior from the ancient times and a female doctor from the modern times as well as the process of making a true king.--HanCinema
Yoo Eun Soo (Kim Hee Sun) is a 33-year old plastic surgeon in the year 2012. She was originally a general surgeon, but quickly found that it was an overworked, under-paid profession and jumped ship to plastic surgery. Her dream is to someday open her own practice. But one day, Choi Young (Lee Min Ho) kidnaps her and takes her back to the Goryeo era because needing her medical skills. This drama shows the love between a warrior from the Goryeo Period and a female doctor from the present day, their love transcending time and space. Their love story spans centuries but also warring beliefs. He gave up on love to be an unflinching warrior.

Cast
Lee Min Ho as Choi Young
Kim Hee Sun as Yoo Eun Soo
Yoo Oh Sung as Gi Cheol
Lee Philip as Jang Bin
Ryu Duk Hwan as King Gong Min
Park Se Young as Princess Nogook
Sung Hoon as Chun Eum Ja
Shin Eun Jung as Hwa Soo In
Lee Byung Joon as Jo Il Sin
Baek Gwang Doo (백광두) as Baek Choong Suk
Kim Jong Moon (김종문) as Oh Dae Man
Jung Yoo Chan (정유찬) as Joo Suk
Kang Chang Mook (강창묵) as Deol Bae
Yoon Kyun Sang (윤균상) as Deok Man
Kim Soo Yun as Deo Gi
Kim Mi Kyung as Court lady Choi
Kwon Min as Ahn Do Chi
Production Credits

Director: Kim Jong Hak
Screenwriter: Song Ji Na




Code
Video
ID                               : 0
Format                           : AVC
Format/Info                      : Advanced Video Codec
Format profile                   : High@L5.1
Format settings, CABAC           : Yes
Format settings, ReFrames        : 4 frames
Codec ID                         : H264
Duration                         : 1h 2mn
Bit rate                         : 3 000 Kbps
Width                            : 1 280 pixels
Height                           : 720 pixels
Display aspect ratio             : 16:9
Frame rate mode                  : Variable
Frame rate                       : 29.970 fps
Color space                      : YUV
Chroma subsampling               : 4:2:0
Bit depth                        : 8 bits
Scan type                        : Progressive
Bits/(Pixel*Frame)               : 0.109
Stream size                      : 1.33 GiB (94%)
Writing library                  : x264 core 112
Encoding settings                : cabac=1 / ref=3 / deblock=1:-1:-1 / analyse=0x3:0x113 / me=hex / subme=6 / psy=1 / psy_rd=1.00:1.00 / mixed_ref=1 / me_range=16 / chroma_me=1 / trellis=1 / 8x8dct=1 / cqm=0 / deadzone=21,11 / fast_pskip=0 / chroma_qp_offset=-4 / threads=12 / sliced_threads=0 / nr=0 / decimate=1 / interlaced=0 / constrained_intra=0 / bframes=3 / b_pyramid=2 / b_adapt=1 / b_bias=1 / direct=3 / weightb=1 / open_gop=0 / weightp=2 / keyint=299 / keyint_min=25 / scenecut=1 / intra_refresh=0 / rc_lookahead=40 / rc=abr / mbtree=1 / bitrate=3000 / ratetol=1.0 / qcomp=0.60 / qpmin=10 / qpmax=51 / qpstep=4 / ip_ratio=1.40 / aq=1:1.00

Audio
ID                               : 1
Format                           : MPEG Audio
Format version                   : Version 1
Format profile                   : Layer 3
Mode                             : Joint stereo
Mode extension                   : MS Stereo
Codec ID                         : 55
Codec ID/Hint                    : MP3
Duration                         : 1h 2mn
Bit rate mode                    : Constant
Bit rate                         : 192 Kbps
Channel(s)                       : 2 channels
Sampling rate                    : 48.0 KHz
Stream size                      : 85.5 MiB (6%)
Alignment                        : Split accross interleaves
Interleave, duration             : 33 ms (1.00 video frame)
Interleave, preload duration     : 500 ms
Writing library                  : LAME3.98.2

IMDB No IMDB ID been added..
Category Korean TV 720p-1080p
Rating
Size 1.43 GB
Show/Hide Files
1 file
AddDate 16/10/2012
Uploader ANONYMOUS
Speed 0 KB/sec
Down 272 times
peers seeds: 0, leechers: 0 = 0 peers
Who thanked
Report
Reseed


No comments...




ADS