User Info

ADS

Torrent’s details
Name Astig (2009) DVDRip XViD Hard EngSub (Pinoy)
  You will need to Register or Login to download!
Info Hash 2e343e63b8d047e8057e880b2cbd1dc38d667167
Description


Astig(2009)DVDRip XViD Hard EngSub (Re Upload)
Aka : Squalor
Castgrin.gifENNIS TRILLO / EDGAR ALLAN GUZMAN / ARNOLD REYES / SID LUCERO / GLAIZA DE CASTRO MALOUH CRISOLOGO / EMILIO GARCIA / JHONG HILARIO / PATRICIA ISMAEL / PAOLO PARAISO
Directed: GB SAMPEDRO
Genre: Drama/Thriller
Runtime: 1h 30mn
Country: Philippines
Language: Filipino/Tagalog
Subtitles:  Hardcoded English

Plot:  an episodic tale of four young men whose stories parallel and contrast with the landmarks and various images of Manila. It tells the story of Ariel, a conman who has to leave his girlfriend upon learning that she is in love with him; Boy, an expectant young father who has to sell his body to pay his wife’s hospital bill; Ronald, a Chinese mestizo who is coming to grips with his identity; and Baste, an overly protective son of an OFW who has to avenge his sister. The film tells the stories of the tough guys of Manila and their resolve to survive the dirt and filth of the “Distinguished and Ever Loyal City.”

Type                             : MOVIE
Format                           : AVI
Format/Info                      : Audio Video Interleave
File size                        : 702 MiB
Duration                         : 1h 30mn
Overall bit rate                 : 1 082 Kbps
Writing application              : VirtualDubMod 1.5.4.1 (build 2178/release)
Writing library                  : VirtualDubMod build 2178/release

Video
ID                               : 0
Format                           : MPEG-4 Visual
Format profile                   : Advanced Simple@L5
Format settings, BVOP            : 1
Format settings, QPel            : No
Format settings, GMC             : No warppoints
Format settings, Matrix          : Custom
Codec ID                         : XVID
Codec ID/Hint                    : XviD
Duration                         : 1h 30mn
Bit rate                         : 949 Kbps
Width                            : 608 pixels
Height                           : 336 pixels
Display aspect ratio             : 16:9
Frame rate                       : 29.970 fps
Color space                      : YUV
Chroma subsampling               : 4:2:0
Bit depth                        : 8 bits
Scan type                        : Progressive
Compression mode                 : Lossy
Bits/(Pixel*Frame)               : 0.155
Stream size                      : 615 MiB (88%)
Writing library                  : XviD 1.2.1 (UTC 2008-12-04)

Audio
ID                               : 1
Format                           : MPEG Audio
Format version                   : Version 1
Format profile                   : Layer 3
Mode                             : Joint stereo
Mode extension                   : MS Stereo
Codec ID                         : 55
Codec ID/Hint                    : MP3
Duration                         : 1h 30mn
Bit rate mode                    : Variable
Bit rate                         : 120 Kbps
Nominal bit rate                 : 128 Kbps
Channel(s)                       : 2 channels
Sampling rate                    : 48.0 KHz
Compression mode                 : Lossy
Stream size                      : 77.9 MiB (11%)
Alignment                        : Aligned on interleaves
Interleave, duration             : 24 ms (0.72 video frame)
Interleave, preload duration     : 153 ms
Writing library                  : LAME3.98r
Encoding settings                : -m j -V 4 -q 2 -lowpass 17 --abr 128




IMDB
IMDB Extra
More.Info
Category Philippines Movie
Rating
Size 702.04 MB
Show/Hide Files
1 file
AddDate 02/05/2011
Uploader ANONYMOUS
Speed 0 KB/sec
Down 646 times
peers seeds: 2, leechers: 0 = 2 peers
Who thanked
Report
Reseed


17/04/2013 05.58 am

pls seed mga kababayang pinoy! grin.gifDD
06/06/2011 11.35 pm

thanks grin.gifgrin.gifgrin.gif
02/05/2011 06.39 pm

laugh.gif wala yun dude! remind lang MODZ kc yun batas dito ako nga ilang beses ng nadeletan ng uploads! angry.gif xempre nakakainis pinaghirapan naten yun eh! laugh.gif pero ok lang!
02/05/2011 04.29 pm

ok pre.....thankssmile1.gif
02/05/2011 02.27 pm

wink.gif lagyan mu pre ng screencap! baka mabura ulet ng modz! sayang nmn! yun huling 2 inapload na pinoy movie yun BULONG yun isa dko matandaan! sinabihan ku na d nakinig ayun 2 araw lang binura n nga modz!confused.gif follow the rules lang parekoy!




ADS