User Info

ADS

Torrent’s details
Name {SB} Emperor Chien Lung (Fung Wong, 1976)
  You will need to Register or Login to download!
Info Hash 2d61a91194b754b1244e9fd8c3b414d71e2ee36d
Description


Title: Emperor Chien Lung
Other titles: Qian Long Huang Qi Yu Ji
Year: 1976
Genre: Comedy / Adventure / Martial Arts
Director: Fung Wong
Country: Hong Kong
Studio: Shaw Brothers
Language: Chinese (mandarin)
Subtitles: English srt
File size: 698 MB
Runtime: 01:38:27
Source: Internet (credits go to the original ripper/uploader)
IMDb: Emperor Chien Lung

Cast:
Lau Wing (Liu Yung), Wong Yu (Wang Yu), Kong Yeung (Chiang Yang), Lam Fung (Lin Feng), Tin Ching, Shut Chung Tin, Ha Ping, Chan Shen, Cheng Kwun-Min, Shut Ping Ping, Mai Laan, Cheng Miu, Chiang Nan, Shum Lo, Leung Gwing Wan, Yeung Chak Lam, Wang Han Chen, Paang Paang, Lee Pang-Fei, Wong Ching Ho and others.

Overview:
Liu Yung (one of Bruce Lee's favorite co-stars) takes center stage as the Ching Dynasty title character, who seeks out court corruption with the help of a streetwise youth played by Wang Yu (Dirty Ho). Whether they're taking on gamblers, bogus magicians, or an arrogant V.I.P., the Emperor and his sidekick teach them all a lesson with wit and style. This production proved so popular that director Li Han-hsiang took over to helm two successful sequels.
(hkflix.com)


Technical info:
Video:
ID: 0
Format: MPEG-4 Visual
Format profile: Advanced Simple@L5
Format settings, BVOP: No
Format settings, QPel: No
Format settings, GMC: No warppoints
Format settings, Matrix: Default (MPEG)
Codec ID: XVID
Codec ID/Hint: XviD
Duration: 1h 38mn
Bit rate: 855 Kbps
Width: 640 pixels
Height : 272 pixels
Display aspect ratio: 2.35:1
Frame rate: 24.975 fps
Color space: YUV
Chroma subsampling: 4:2:0
Bit depth: 8 bits
Scan type: Progressive
Bits/(Pixel*Frame): 0.197
Stream size: 602 MiB (86%)

Audio:
ID: 1
Format: MPEG Audio
Codec ID : 55
Codec ID/Hint: MP3
Duration: 1h 38mn
Bit rate: 124 Kbps
Channel(s): 2 channels
Sampling rate: 48.0 KHz
Stream size: 87.0 MiB (12%)
Alignment: Split accross interleaves
Interleave, duration: 24 ms (0.60 video frame)
Interleave, preload duration: 410 ms


Snapshots:


Interested in more Shaw Bros?
Then check out the Asiatorrents Shaw Brothers Thread to see what's available.
IMDB
IMDB Extra
More.Info
Category Hong Kong Movie
Rating N/A
Size 698.28 MB
Show/Hide Files
3 files
AddDate 05/10/2010
Uploader ANONYMOUS
Speed 0 KB/sec
Down 221 times
peers seeds: 0, leechers: 0 = 0 peers
Who thanked
Report
Reseed


14/11/2012 02.28 pm

An excellent film, but this version is in Cantonese not Mandarin.




ADS