User Info

ADS

Torrent’s details
Name Love Me or Leave Me (2012) Complete (eng subbed)
  You will need to Register or Login to download!
Info Hash 2cbd9f9d591bd1eb552ff026e82d8f85ea787f0d
Description


http://wiki.d-addicts.com/Love_Me_Or_Leave_Me
http://mydramalist.com/taiwanese-drama/5393/rent-a-lover

Title: 我租了一個情人 / Wo Zu Le Yi Ge Qing Ren
English title: Love Me Or Leave Me
AKA: 出租情人 / I Rented a Lover / Rent A Lover
Genre: Romance
Episodes: 16
Broadcast network: TTV
Broadcast period: 2012-Nov-08 to 2013-Feb-21
Air time: Thursday 22:00
Ending theme song: Xing Fu Jiu Hao (幸福就好) by Soo Wincci (蘇盈之)
Language: Mandarin
Country: Taiwan
Subtitles: English

Cast
   Tiffany Hsu as Ji Qing 紀晴
   Chris Wang as Fang Hao Ming 方顥明
   Albee Huang as Zhao Shan Shan 趙珊珊
   Li Kang Yi as Liao Yi Ren 廖依人
   Alan Kuo as Ding Sheng Hua 丁勝華
   Chen De Lie as Wang Da Shuai 王大帥
   Dou Dou (豆豆) as Wang Dou Dou 王荳荳
   Wan Wei Qiao as Fang Yong Xin 方詠心
   Tao Chuan Zheng as Ji Shi Xian 紀世賢
   Lin Xiu Jun (林秀君) as Mrs. Fang 方母
   Lin Shu Yu as Zhuang Xiao Xian 莊小嫻
   Lin Mei Xiu as Zeng Hai Ling 曾海玲



Synopsis
A girlfriend, who is fearful of marriage, hires a woman to test out her boyfriend's faithfulness before marrying him. Her action produces an unintended consequence.

General
Complete name                  : loveme-01.rmvb
Format                         : RealMedia
File size                      : 467 MiB
Duration                       : 1h 35mn
Overall bit rate               : 663 Kbps

Video
ID                             : 1
Format                         : RealVideo 4
Codec ID                       : RV40
Codec ID/Info                  : Based on AVC (H.264), Real Player 9
Duration                       : 1h 35mn
Bit rate                       : 599 Kbps
Width                          : 720 pixels
Height                         : 540 pixels
Display aspect ratio           : 4:3
Frame rate                     : 29.970 fps
Bits/(Pixel*Frame)             : 0.051
Stream size                    : 408 MiB (87%)

Audio
ID                             : 0
Format                         : Cooker
Codec ID                       : cook
Codec ID/Info                  : Based on G.722.1, Real Player 6
Duration                       : 1h 35mn
Bit rate                       : 64.1 Kbps
Channel(s)                     : 2 channels
Sampling rate                  : 44.1 KHz
Bit depth                      : 16 bits
Stream size                    : 43.6 MiB (9%)



IMDB No IMDB ID been added..
Category Taiwanese TV
Rating
Size 7.29 GB
Show/Hide Files
34 files
AddDate 21/05/2013
Uploader ANONYMOUS
Speed 0 KB/sec
Down 372 times
peers seeds: 5, leechers: 2 = 7 peers
Who thanked
Report
Reseed


11/10/2013 03.34 am

How do I watch torrent fies.  Thank you
04/07/2013 02.49 am

RMVB are very good quality for the file size.  So in the view of a seeder/uploader, this would be ideal.
You get good quality and faster seeding.

Now when it comes to playing it, they are annoying to deal with for most people.
I for one like putting these on a hard drive and using my WDTV box to play it on a big screen.
I run all the episodes again through "Any Video Converter" (free version), convert them all to MKV format.
No issues but file size almost doubles.
23/05/2013 01.21 am

niellyn

If your having trouble with the rmvb files try installing k-lite Mega Codec Pack v9.9.0 and Real Alternative v2.0.2. And use the Media Player Classic inside the k-lite Mega Codec Pack. You can adjust the timings for subs and voice if they do not match with the lip movement on screen. I use the MPC for all rmvb and I have found it works fine.

21/05/2013 01.59 pm

is there any possibility we can get a different file type? RMVB are really problematic :S
21/05/2013 01.37 pm

I included in the torrent the Love Before Special, a short film for the Love Me or Leave Me drama series aired on Youtube.




ADS