User Info

ADS

Torrent’s details
Name Never Ending Story 2012 720p HDTV AAC 2.0 x264-Playy
  You will need to Register or Login to download!
Info Hash 2afab6ea015096fb6f44e9d04eeadc1a4135e6eb
Description


Title: 네버엔딩스토리 / Never Ending Story
Genre: Drama, Melodrama, Romance
Director: Jung Yong-Joo
Writer: Park Eun-Gyo
Country: South Korea
Release date in SK : 2012/01/18
Language: Korean
Subtitle: English by Darksmurf (Attached Seperately)


Cast:
  • Eom Tae-woong 엄태웅 As Kang Dong-joo (강동주)
  • Jeong Ryeo-won 정려원 As Oh Song-kyeong (오송경)
  • Yoo Seon 유선 Park Ki-woong 박기웅
  • Lee Byeong-joon 이병준
  • Kwon Hae-hyo 권해효
  • Cha Tae-hyeon (차태현) Special appearance
  • Ma Dong-seok (마동석) Special appearance
  • Park Seong-gwang (박성광) Special appearance
  • Ahn Hye-kyeong (안혜경) Special appearance


    Synopsis:

    Quote:
    Song-kyung is well organized woman, working at a bank. Dong-ju is just easy-going man, dreaming of jackpot. Now, Song-kyung plans to get married through couple matching agency. At the same time, Dong-ju registers at the same agency by pressure from his sister-in-law who wants to kick him out of their house. A few days later, they re-encounter at hospital, where both of them are diagnosed with terminal illness. Instead of wedding ceremony, they begin to plan the last ceremony of their lives-their own funeral together by shopping around their coffin, burial chamber and so.



    Mediainfo:



    Code
    General
    Complete name                            : Never Ending Story 2012 720p HDTV AAC 2.0 x264-Playy.mp4
    Format                                   : MPEG-4
    Format profile                           : Base Media / Version 2
    Codec ID                                 : mp42
    File size                                : 2.69 GiB
    Duration                                 : 1h 54mn
    Overall bit rate mode                    : Variable
    Overall bit rate                         : 3 381 Kbps
    Encoded date                             : UTC 2012-02-15 07:44:05
    Tagged date                              : UTC 2012-02-15 07:44:05

    Video
    ID                                       : 201
    Format                                   : AVC
    Format/Info                              : Advanced Video Codec
    Format profile                           : High@L4.1
    Format settings, CABAC                   : Yes
    Format settings, ReFrames                : 2 frames
    Format settings, GOP                     : M=3, N=15
    Codec ID                                 : avc1
    Codec ID/Info                            : Advanced Video Coding
    Duration                                 : 1h 54mn
    Bit rate                                 : 3 000 Kbps
    Width                                    : 1 280 pixels
    Height                                   : 720 pixels
    Display aspect ratio                     : 16:9
    Frame rate mode                          : Constant
    Frame rate                               : 29.970 fps
    Color space                              : YUV
    Chroma subsampling                       : 4:2:0
    Bit depth                                : 8 bits
    Scan type                                : Progressive
    Bits/(Pixel*Frame)                       : 0.109
    Stream size                              : 2.47 GiB (92%)
    Writing library                          : x264 core 116
    Encoding settings                        : cabac=1 / ref=2 / deblock=1:0:0 / analyse=0x3:0x113 / me=hex / subme=6 / psy=1 / psy_rd=1.0:0.0 / mixed_ref=1 / me_range=16 / chroma_me=1 / trellis=0 / 8x8dct=1 / cqm=0 / deadzone=21,11 / fast_pskip=0 / chroma_qp_offset=-2 / threads=8 / sliced_threads=0 / nr=0 / decimate=1 / mbaff=0 / constrained_intra=0 / bframes=2 / b_pyramid=0 / b_adapt=1 / b_bias=0 / direct=3 / wpredb=1 / wpredp=2 / keyint=15 / keyint_min=8 / scenecut=0 / intra_refresh=0 / rc=abr / mbtree=0 / bitrate=3000 / ratetol=1.0 / qcomp=0.00 / qpmin=0 / qpmax=10 / qpstep=4 / ip_ratio=1.41 / pb_ratio=1.25 / aq=1:1.00
    Tagged date                              : UTC 2012-02-15 07:46:40

    Audio
    ID                                       : 101
    Format                                   : AAC
    Format/Info                              : Advanced Audio Codec
    Format profile                           : LC
    Codec ID                                 : 40
    Duration                                 : 1h 54mn
    Bit rate mode                            : Variable
    Bit rate                                 : 128 Kbps
    Channel(s)                               : 2 channels
    Channel positions                        : Front: L R
    Sampling rate                            : 48.0 KHz
    Compression mode                         : Lossy
    Stream size                              : 104 MiB (4%)
    Tagged date                              : UTC 2012-02-15 07:46:40















  • IMDB No IMDB ID been added..
    Category Korean Movie 720p-1080p
    Rating
    Size 2.69 GB
    Show/Hide Files
    3 files
    AddDate 24/02/2012
    Uploader ANONYMOUS
    Speed 10.6 KB/sec
    Down 1181 times
    peers seeds: 6, leechers: 0 = 6 peers
    Who thanked
    Report
    Reseed


    13/10/2012 04.30 pm

    Thanks a lot!
    12/07/2012 01.36 pm

    is no one seeding this? the download doesnt start at all
    02/05/2012 12.19 pm

    Thank you so much! Nice video (so HD!) plus perfect English subtitle...
    19/04/2012 05.03 am

    Thanks guys smile2.gif
    30/03/2012 01.45 am

    Thank you so much! Been waiting for the English subtitle for the longest time... okay I might be exaggerating, but a month and a half seemed like an eternity when you're waiting for something that you really like... Thank you so much again! smile1.gif
    10/03/2012 03.34 pm

    sub pls... thnx
    10/03/2012 09.54 am

    i hope ENGLISH subtitles will be out soon...great movie though i don't know how to speak korean...that's the fact ha ha ha...MANY TNX!wink.gif
    06/03/2012 05.45 am

    sub please thanks




    ADS