User Info

ADS

Torrent’s details
Name i Vice Ganda mo ko sa Araneta TVRip (2013)
  You will need to Register or Login to download!
Info Hash 2a9fa9ce705e1d4950eec8fcadb4e1dd7ffe9d8e
Description








Cast: vice ganda, daniel padilla, chocolate, enrique gil, dawn zulueta
Directed: bobet vidanes
Genre: comedy concert
Runtime:  04:13:09
Also Known As: i vice ganda mo ako sa araneta
Country: philippines
Language: tagalog , english
Subtitles: n/a

General
Complete name                            : Vice Ganda Mo Ko at the Araneta.mp4
Format                                   : MPEG-4
Format profile                           : Base Media / Version 2
Codec ID                                 : mp42
File size                                : 3.22 GiB
Duration                                 : 4h 13mn
Overall bit rate mode                    : Variable
Overall bit rate                         : 1 820 Kbps
Encoded date                             : UTC 2013-05-18 05:36:28
Tagged date                              : UTC 2013-05-18 07:46:56
Writing application                      : HandBrake 0.9.8 2012071700

Video
ID                                       : 1
Format                                   : AVC
Format/Info                              : Advanced Video Codec
Format profile                           : Main@L3.0
Format settings, CABAC                   : Yes
Format settings, ReFrames                : 4 frames
Codec ID                                 : avc1
Codec ID/Info                            : Advanced Video Coding
Duration                                 : 4h 13mn
Bit rate mode                            : Variable
Bit rate                                 : 1 688 Kbps
Width                                    : 710 pixels
Height                                   : 480 pixels
Display aspect ratio                     : 4:3
Frame rate mode                          : Variable
Frame rate                               : 29.438 fps
Minimum frame rate                       : 7.247 fps
Maximum frame rate                       : 29.970 fps
Color space                              : YUV
Chroma subsampling                       : 4:2:0
Bit depth                                : 8 bits
Scan type                                : Progressive
Bits/(Pixel*Frame)                       : 0.168
Stream size                              : 2.98 GiB (93%)
Writing library                          : x264 core 120
Encoded date                             : UTC 2013-05-18 05:36:28
Tagged date                              : UTC 2013-05-18 07:46:41
Color primaries                          : BT.601 NTSC
Transfer characteristics                 : BT.709
Matrix coefficients                      : BT.601

Audio
ID                                       : 2
Format                                   : AAC
Format/Info                              : Advanced Audio Codec
Format profile                           : LC
Codec ID                                 : 40
Duration                                 : 4h 13mn
Bit rate mode                            : Variable
Bit rate                                 : 128 Kbps
Maximum bit rate                         : 146 Kbps
Channel(s)                               : 2 channels
Channel positions                        : Front: L R
Sampling rate                            : 48.0 KHz
Compression mode                         : Lossy
Delay relative to video                  : 180ms
Stream size                              : 232 MiB (7%)
Encoded date                             : UTC 2013-05-18 05:36:28
Tagged date                              : UTC 2013-05-18 07:46:41



IMDB No IMDB ID been added..
Category Philippines Movie
Rating
Size 3.22 GB
Show/Hide Files
1 file
AddDate 31/05/2013
Uploader ANONYMOUS
Speed 0 KB/sec
Down 1220 times
peers seeds: 4, leechers: 0 = 4 peers
Who thanked
Report
Reseed


19/02/2014 04.05 am

thank you for this
20/01/2014 12.16 am

Thanks :>
25/06/2013 09.33 am

nicegrin.gif
02/06/2013 12.48 am

nice one grin.gifgrin.gifgrin.gifgrin.gif
01/06/2013 08.29 am

looks great THANKS
01/06/2013 05.22 am

wala bang huli ito nang abs - cbn , hindi ba delikado download ?sad.gif
01/06/2013 03.48 am

thanks for the shots smile1.gif) will seed afterband.gif
31/05/2013 03.52 pm

@tone_depot,,this copy is from myx pay-per-view live streaming.. on the day of concert
31/05/2013 01.08 pm

screenshots pleasesmurf.gif
31/05/2013 11.05 am

Pa seed sa mga leachers thanks smile1.gif
31/05/2013 10.12 am

Thanks!smile1.gif
31/05/2013 10.10 am

official DVD release? cam? angel.gif




ADS