User Info

ADS

Torrent’s details
Name I.Need.Romance.2012.E05-E06.HDTV.H264.720p-WITH
  You will need to Register or Login to download!
Info Hash 2a10f77711ad9afaedd001a7ce41adf0bdfcbabd
Description

http://wiki.d-addicts.com/I_Need_Romance_2012
http://www.hancinema.net/korean_movie_I_Need_Romance_2012.php
http://asianwiki.com/I_Need_Romance_2
http://tvnseries.lifestyler.co.kr/romance2012

Title: 로맨스가 필요해 2012 / Romaenseuka Pilyohae 2012
AKA: I Need Romance 2
Genre: Romance, comedy
Episodes: 16
Broadcast network: tvN
Broadcast period: 2012-Jun-20 to TBA
Air time: Wednesday & Thursday 23:00
Related TV Shows: I Need Romance
Language: Korean
Country: South Korea
Subtitles: English (credit to Viki Team) (thanks to kingofbeer)

Production Credits
Director: Lee Jung Hyo, Jang Young Woo (장영우)
Screenwriter: Jung Hyun Jung

Main Cast
Jung Yoo Mi as Joo Yeol Mae
Lee Jin Wook as Yoon Suk Hyun
Kim Ji Suk as Shin Ji Hoon
Kim Ji Woo as Sun Jae Kyung
Kang Ye Sol as Woo Ji Hee
Kim Ye Won
In Gyo Jin
Jung Gyu Woon as Kim Han Sup (cameo)


Synopsis
Joo Yeol Mae (Jung Yoo Mi) gets entangled in a love triangle between her long term boyfriend, Yoon Suk Hyun, (Lee Jin Wook) and a new love interest, Shin Ji Hoon (Kim Ji Suk).

Notes
This is the second season of the successful romance comedy, I Need Romance, but with a different cast and characters.


General
Complete name                  : I.Need.Romance.2012.E05.120704.HDTV.H264.720p-WITH.mp4
Format                         : MPEG-4
Format profile                 : Base Media
Codec ID                       : isom
File size                      : 777 MiB
Duration                       : 48mn 26s
Overall bit rate               : 2 244 Kbps

Video
ID                             : 1
Format                         : AVC
Format/Info                    : Advanced Video Codec
Format profile                 : High@L4.1
Format settings, CABAC         : Yes
Format settings, ReFrames      : 4 frames
Codec ID                       : avc1
Codec ID/Info                  : Advanced Video Coding
Duration                       : 48mn 26s
Source duration                : 48mn 26s
Bit rate                       : 2 100 Kbps
Maximum bit rate               : 5 897 Kbps
Width                          : 1 280 pixels
Height                         : 720 pixels
Display aspect ratio           : 16:9
Frame rate mode                : Constant
Frame rate                     : 29.970 fps
Color space                    : YUV
Chroma subsampling             : 4:2:0
Bit depth                      : 8 bits
Scan type                      : Progressive
Bits/(Pixel*Frame)             : 0.076
Stream size                    : 732 MiB (94%)
Source stream size             : 732 MiB
Writing library                : x264 core 116 r2037 f8ebd4a

Audio
ID                             : 2
Format                         : MPEG Audio
Format version                 : Version 1
Format profile                 : Layer 3
Mode                           : Joint stereo
Mode extension                 : MS Stereo
Codec ID                       : 6B
Duration                       : 48mn 25s
Bit rate mode                  : Constant
Bit rate                       : 128 Kbps
Maximum bit rate               : 132 Kbps
Channel(s)                     : 2 channels
Sampling rate                  : 48.0 KHz
Compression mode               : Lossy
Stream size                    : 44.3 MiB (6%)


IMDB No IMDB ID been added..
Category Korean TV 720p-1080p
Rating N/A
Size 1.51 GB
Show/Hide Files
6 files
AddDate 06/07/2012
Uploader ANONYMOUS
Speed 0 KB/sec
Down 106 times
peers seeds: 0, leechers: 0 = 0 peers
Who thanked
Report
Reseed


06/08/2012 05.16 am

Thanks for the drama--where can I find subs for 5&6?-appreciate much for the info?smile1.gif
25/07/2012 05.09 am

thanks for this drama.. but where can we get the subs? thanks again!grin.gif
18/07/2012 12.46 am

where can i get the subtitles?
06/07/2012 07.56 pm

I had the eps already, but much thanks for the subs (and to kingofbeer, too wink.gif!




ADS