User Info

ADS

Torrent’s details
Name Rich Man, Poor Woman.ep07.480p.x264
  You will need to Register or Login to download!
Info Hash 286c8e868e7e68c6c76640ed6b33704f6367d542
Description

http://wiki.d-addicts.com/Rich_Man,_Poor_Woman
http://asianwiki.com/Rich_Man,_Poor_Woman
http://www.fujitv.co.jp/richman-poorwoman

Title: リッチマン、プアウーマン
Title (romaji): Rich Man, Poor Woman
Format: Renzoku
Genre: Romantic comedy
Episodes: TBA
Broadcast network: Fuji TV
Broadcast period: 2012-Jul-09 start
Air time: Monday 21:00
Language: Japanese
Country: Japan
Subtitles: English
(credit to Eric Paroissien @ http://paroissien.com)

Production Credits
Screenwriter: Adachi Naoko (安達奈緒子)
Producers: Masumoto Jun, Sekiguchi Daisuke (関口大輔)
Directors: Nishiura Masaki, Tanaka Ryo (田中亮)
Music: Hayashi Yuki

Main Cast
   Oguri Shun as Hinata Tetsushi
   Ishihara Satomi as Sawaki Chihiro
   Aibu Saki as Asahina Yoko
   Iura Arata as Asahina Kosuke
   Asari Yosuke as Yasuoka
   Nakamura Yasuhi
   Yagi Nozomi (八木のぞみ)
   Maikawa Aiku (舞川あいく)
   Nomura Masumi
   Furukawa Yuki
   Maruyama Tomomi
   Nakahara Takeo
   Sano Shiro

Synopsis
Oguri Shun plays Hinata Tetsushi, an affluent man whose personality is on the contrary, speckled with flaws. A CEO of an IT firm who is published on Forbes as a billionaire, Tetsushi attained his fortune through chance and pure luck. A woman who meets Tetsushi and eventually becomes attracted to him is Sawaki Chihiro, played by Ishihara Satomi. Chihiro is a hardworking college student at Tokyo University who has prepared for her future as much as she possibly could through studies and obtaining licenses. Despite her efforts, she has yet to land a job. Upon meeting Tetsushi, she begins to unravel a genuine pureness inside him and solitude resulting from such pureness, which eventually draws her closer to him. The two repeatedly conflict each other, but little by little learn about one another to grow and develop together...
A Cinderella story of the real world. Will the two be able to compromise their values and lifestyles to become a happy couple?

General
Complete name                  : Rich Man, Poor Woman.ep07.480p.x264-[D-Addicts].mp4
Format                         : MPEG-4
Format profile                 : Base Media
Codec ID                       : isom
File size                      : 317 MiB
Duration                       : 46mn 30s
Overall bit rate mode          : Variable
Overall bit rate               : 952 Kbps

Video
ID                             : 1
Format                         : AVC
Format/Info                    : Advanced Video Codec
Format profile                 : High@L4.1
Format settings, CABAC         : Yes
Format settings, ReFrames      : 4 frames
Codec ID                       : avc1
Codec ID/Info                  : Advanced Video Coding
Duration                       : 46mn 29s
Bit rate                       : 819 Kbps
Maximum bit rate               : 7 561 Kbps
Width                          : 848 pixels
Height                         : 480 pixels
Display aspect ratio           : 16:9
Frame rate mode                : Constant
Frame rate                     : 29.970 fps
Color space                    : YUV
Chroma subsampling             : 4:2:0
Bit depth                      : 8 bits
Scan type                      : Progressive
Bits/(Pixel*Frame)             : 0.067
Stream size                    : 273 MiB (86%)
Writing library                : x264 core 125 r2200 999b753

Audio
ID                             : 2
Format                         : AAC
Format/Info                    : Advanced Audio Codec
Format profile                 : LC
Codec ID                       : 40
Duration                       : 46mn 30s
Bit rate mode                  : Variable
Bit rate                       : 128 Kbps
Maximum bit rate               : 136 Kbps
Channel(s)                     : 2 channels
Channel positions              : Front: L R
Sampling rate                  : 44.1 KHz
Compression mode               : Lossy
Stream size                    : 42.6 MiB (13%)

IMDB
IMDB Extra
More.Info
Category Japanese TV
Rating
Size 319.07 MB
Show/Hide Files
3 files
AddDate 22/08/2012
Uploader ANONYMOUS
Speed 0 KB/sec
Down 324 times
peers seeds: 1, leechers: 0 = 1 peers
Who thanked
Report
Reseed


20/10/2012 12.32 am

Thank you grin.gif
27/08/2012 09.02 am

A thousand thank you's for you uploads with this series and others, Aussie with Jp wife it is great to enjoy together, thank you.




ADS