User Info

ADS

Torrent’s details
Name We Got Married Teukso (Dimple) Couple Episode 1 to 31 (COMPLETE) ENG SUB
  You will need to Register or Login to download!
Info Hash 26b51fedbd219af293bab738e85155e26583e615
Description


LINK: http://en.wikipedia.org/wiki/We_Got_Married#Season_III
Cast: Leeteuk (Super Junior) and Kang Sora
Also Known As: Dimple Couple, TeukSo Couple
Executive producer: Im Jeong Ah
Genre: Reality TV, Variety
Country: South Korea
Language: Korean
Subtitles: English Hardsubbed by KShownow (www.kshownow.net)




Included We Got Married S3 Christmas Special at Episode 11 and 12.

Episode 1-16 (360p)
Video
ID                                       : 0
Format                                   : MPEG-4 Visual
Format profile                           : Advanced Simple@L5
Format settings, BVOP                    : 2
Format settings, QPel                    : No
Format settings, GMC                     : No warppoints
Format settings, Matrix                  : Default (H.263)
Muxing mode                              : Packed bitstream
Codec ID                                 : XVID
Codec ID/Hint                            : XviD
Duration                                 : 33mn 32s
Bit rate                                 : 594 Kbps
Width                                    : 640 pixels
Height                                   : 360 pixels
Display aspect ratio                     : 16:9
Frame rate                               : 30.000 fps
Color space                              : YUV
Chroma subsampling                       : 4:2:0
Bit depth                                : 8 bits
Scan type                                : Progressive
Compression mode                         : Lossy
Bits/(Pixel*Frame)                       : 0.086
Stream size                              : 142 MiB (81%)
Writing library                          : XviD 64

Audio
ID                                       : 1
Format                                   : MPEG Audio
Format version                           : Version 1
Format profile                           : Layer 3
Mode                                     : Joint stereo
Mode extension                           : MS Stereo
Codec ID                                 : 55
Codec ID/Hint                            : MP3
Duration                                 : 33mn 32s
Bit rate mode                            : Constant
Bit rate                                 : 128 Kbps
Channel(s)                               : 2 channels
Sampling rate                            : 44.1 KHz
Compression mode                         : Lossy
Stream size                              : 30.7 MiB (17%)
Alignment                                : Split accross interleaves
Interleave, duration                     : 33 ms (1.00 video frame)
Interleave, preload duration             : 500 ms

Episode 17-31 (720p)
Video
ID                                       : 0
Format                                   : AVC
Format/Info                              : Advanced Video Codec
Format profile                           : High@L5.1
Format settings, CABAC                   : Yes
Format settings, ReFrames                : 5 frames
Codec ID                                 : H264
Duration                                 : 27mn 45s
Bit rate                                 : 2 500 Kbps
Width                                    : 1 280 pixels
Height                                   : 720 pixels
Display aspect ratio                     : 16:9
Frame rate                               : 29.970 fps
Color space                              : YUV
Chroma subsampling                       : 4:2:0
Bit depth                                : 8 bits
Scan type                                : Progressive
Bits/(Pixel*Frame)                       : 0.091
Stream size                              : 499 MiB (92%)
Writing library                          : x264 core 122 r2184bm 5c85e0a
Encoding settings                        : cabac=1 / ref=5 / deblock=1:0:0 / analyse=0x3:0x113 / me=hex / subme=7 / psy=1 / psy_rd=1.00:0.00 / mixed_ref=1 / me_range=16 / chroma_me=1 / trellis=1 / 8x8dct=1 / cqm=0 / deadzone=21,11 / fast_pskip=1 / chroma_qp_offset=-2 / threads=12 / sliced_threads=0 / nr=0 / decimate=1 / interlaced=0 / bluray_compat=0 / constrained_intra=0 / bframes=3 / b_pyramid=2 / b_adapt=1 / b_bias=0 / direct=1 / weightb=1 / open_gop=0 / weightp=2 / keyint=250 / keyint_min=25 / scenecut=40 / intra_refresh=0 / rc_lookahead=40 / rc=abr / mbtree=1 / bitrate=2500 / ratetol=1.0 / qcomp=0.60 / qpmin=0 / qpmax=69 / qpstep=4 / ip_ratio=1.40 / aq=1:1.00

Audio
ID                                       : 1
Format                                   : AC-3
Format/Info                              : Audio Coding 3
Mode extension                           : CM (complete main)
Format settings, Endianness              : Big
Codec ID                                 : 2000
Duration                                 : 27mn 45s
Bit rate mode                            : Constant
Bit rate                                 : 192 Kbps
Channel(s)                               : 2 channels
Channel positions                        : Front: L R
Sampling rate                            : 48.0 KHz
Bit depth                                : 16 bits
Compression mode                         : Lossy
Stream size                              : 38.1 MiB (7%)
Alignment                                : Aligned on interleaves
Interleave, duration                     : 33 ms (1.00 video frame)
Interleave, preload duration             : 512 ms
IMDB No IMDB ID been added..
Category Korean TV 720p-1080p
Rating
Size 13.82 GB
Show/Hide Files
36 files
AddDate 21/09/2012
Uploader ANONYMOUS
Speed 0 KB/sec
Down 797 times
peers seeds: 9, leechers: 1 = 10 peers
Who thanked
Report
Reseed


01/05/2014 01.44 am

WGM TeukSo Couple Episode 19 Part 1.avi -> avi file is broken , can u re up again with normal avi please?? smile1.gif
thank you ^^
24/03/2013 07.33 pm

Seed pls, it stoped in 27 % :c
Anyway thx for upload C:
02/01/2013 04.06 am

yes, i think ep17 is missing.. but will check it after the download..
soo excited!
06/11/2012 07.05 am

Thank you! wink.gif
02/11/2012 11.02 pm

Thank you so much !!! grin.gif
09/10/2012 03.16 pm

There is something wrong with ep 19 part 1.
09/10/2012 03.08 pm

Thanks for sharing smile1.gif but your missing ep 17
23/09/2012 06.38 am

just changed cat to correct one.
21/09/2012 04.11 pm

Shouldn't this torrent be in the Korean section and not the Hong Kong TV section?
21/09/2012 10.33 am

Please upload We Got Married (YongSeo Couple) Ep 1 to 43 in HD..Pleasetongue.gif




ADS