User Info

ADS

Torrent’s details
Name TVB Triumph In The Skies II Ep20 HDTV 720p RVMB TVBOXNOW
  You will need to Register or Login to download!
Info Hash 230ca7eec9bb876d2bf08c6e52dfa6096d90d490
Description

Chinese Title: 衝上雲霄II
English Title: Triumph in the Skies II
Genre: Modern Drama, Romance
Producer: Joe Chan (formerly a scriptwriter-director; As a producer: Ghetto Justice II)
Production: July 2012 - January 2013
Filming locations: Hong Kong, Sanya (China), Qingdao (China), Paris, London, Kenting (Taiwan)
Notable: Triumph in the Skies sequel; Amazing Summer 2013 series.
Theme Song: by George Lam | Sub Theme: Lovers in the Sky (空中戀人) by Mag Lam [Get It!]
Episodes: 43

BROADCAST PERIOD: JULY 15 - SEPTEMBER 11, 2013

Cast:
Francis Ng, Chilam Cheung, Myolie Wu, Fala Chen, Ron Ng, Kenneth Ma, Nancy Wu, Him Law, Elena Kong, Rebecca Zhu, Toby Leung, Kelly Fu, Eliza Sam, Patrick Dunn, Pal Sinn , Adrian Chau, William So , Stephen Huynh



Synposis:
SAM TONG (Francis Ng) is a successful pilot with a smooth sailing career and has the optimistic ZOE SO (Myolie Wu) as his wife. Unfortunately ZOE suffers from congenital heart disease and since her condition can worsen anytime, SAM takes her traveling around the world. When ZOE knew her condition worsened, she didn't want her husband to witness her passing, but when SAM wanted to turn back, it was already too late. Losing his wife caused a huge impact on SAM, he went traveling alone and met a shop owner MANNA (Michelle Yim) in London. Because of ZOE, SAM had learned how to make cakes and his skills were much appreciated by MANNA, who had a strong interest to hire him. (aZnangel)

MANNA's daughter HOLLY HO (Fala Chen) was also greatly impacted by her boyfriend's death from a plane accident. She goes roaming around all over the place to cope with her grief. When the serious and stern SAM encounters the sensible and impulsive HOLLY, naturally the two would not get along. However as fate has it, the two comforted each other on the lost of their partners. SAM decided to end his traveling and joined Skylette Airlines. (aZnangel)

JAYDEN KOO (Chilam Cheung) is the celebrity captain of Skylette. Whether if its the personality or the work, JAYDEN is completely different from SAM, which causes several conflicts and disputes between the two. JAYDEN's younger sister SUMMER KOO (Myolie Wu) looks exactly like ZOE, which caused SAM to unconsciously treat her like family. SUMMER also respects SAM like an elder brother, which did make JAYDEN feel good. Meanwhile, ISSAC TONG (Ron Ng) is working at Skylette as well, he worships JAYDEN and developed a close brotherly relationship with him. ISSAC soon develops feelings for his sister SUMMER... ISSAC's good friend ROY KO (Kenneth Ma) is faced with a relationship dilemma. ROY has a flight attendant girlfriend PINK WU (Rebecca Zhu), but also shares a secret with senior flight attendant HEATHER FONG (Elena Kong) and becomes close friends. ROY and HEATHER eventually had an one-night-stand. JIM (Him Law) was initially a swimmer in the HK team, but later goes to study to become a pilot. He also falls in love with for the pregnant COCO LING (Nancy Wu). (aZnangel)

HOLLY leaves London and goes to Hong Kong, where she successfully enrolls in Skylette's pilot training courses. The playboy pilot JAYDEN immediately started pursuing HOLLY and at the same time, HOLLY saw a shadow of her late boyfriend in JAYDEN, thus the two quickly became a couple... SAM accidentally discovers HOLLY owns the same Triangel doll that ZOE had, but it was just a coincidence that ZOE gave Triangel to HOLLY before her passing...


Code

T.I.T.S.II-E*-TBN-720p
Format                                   : RealMedia
File size                                : 662 MiB
Duration                                 : 44mn 49s
Overall bit rate                         : 2 044 Kbps
Performer                                : TVBNOW
Copyright                                : TVBNOW Official

Video
ID                                       : 1
Format                                   : RealVideo 4
Codec ID                                 : RV40
Codec ID/Info                            : Based on AVC (H.264), Real Player 9
Duration                                 : 44mn 49s
Bit rate                                 : 1 916 Kbps
Width                                    : 1 280 pixels
Height                                   : 720 pixels
Display aspect ratio                     : 16:9
Frame rate                               : 25.000 fps
Bits/(Pixel*Frame)                       : 0.083
Stream size                              : 614 MiB (93%)

Audio
ID                                       : 0
Format                                   : AAC
Format/Info                              : Advanced Audio Codec
Format profile                           : LC
Codec ID                                 : raac
Codec ID/Info                            : Real Player 9
Duration                                 : 44mn 49s
Bit rate                                 : 128 Kbps
Channel(s)                               : 2 channels
Sampling rate                            : 44.1 KHz
Bit depth                                : 16 bits
Compression mode                         : Lossy
Stream size                              : 41.0 MiB (6%)



IMDB No IMDB ID been added..
Category Hong Kong TV 720p-1090p
Rating N/A
Size 661.62 MB
Show/Hide Files
1 file
AddDate 10/08/2013
Uploader ANONYMOUS
Speed 0 KB/sec
Down 49 times
peers seeds: 0, leechers: 0 = 0 peers
Who thanked
Report
Reseed


No comments...




ADS